当前位置: 首页 >> 动画电影 >> 希德尼娅的骑士 编织爱的行星[简英字幕].Knights.of.Sidonia.Love.Woven.in.the.Stars.2021.1080p.BluRay.x264.AC3-PAGE 8.86 >> 正文

希德尼娅的骑士 编织爱的行星[简英字幕].Knights.of.Sidonia.Love.Woven.in.the.Stars.2021.1080p.BluRay.x264.AC3-PAGE 8.86

2022年05月03日 11:39:00     电影发布:来源于网络     电影分类:动画电影     评论(0)    

◎译 名 希德尼娅的骑士 编织爱的行星 / Knights of Sidonia: The Star Where Love is Spun / 薛多尼亞騎士 織愛之星(台)

◎片 名 シドニアの騎士 あいつむぐほし

◎年 代 2021

◎产 地 日本

◎类 别 科幻 / 动画

◎语 言 日语

◎上映日期 2021-05-14(日本)

◎IMDb链接 https://www.imdb.com/title/tt12642574/

◎豆瓣评分 8.2/10 (1091人评价)

◎豆瓣链接 https://movie.douban.com/subject/35128768/

◎片 长 110分钟

◎导 演 濑下宽之 Hiroyuki Seshita (id:1311509)

吉平直弘 Tadahiro Yoshihira (id:1430022)

◎编 剧 村井贞之 Sadayuki Murai (id:1292721)

弐瓶勉 Tsutomu Nihei (id:1356898)

◎演 员 逢坂良太 Ryota Ohsaka (id:1320731)

洲崎绫 Aya Suzaki (id:1325749)

丰崎爱生 Aki Toyosaki (id:1274459)

金元寿子 Hisako Kanemoto (id:1275943)

樱井孝宏 Takahiro Sakurai (id:1019264)

佐仓绫音 Ayane Sakura (id:1321489)

喜多村英梨 Eri Kitamura (id:1276137)

大原沙耶香 Sayaka Ohara (id:1206802)

坪井智浩 Tomohiro Tsuboi (id:1031643)

子安武人 Takehito Koyasu (id:1054354)

新井里美 Satomi Arai (id:1274312)

田中敦子 Atsuko Tanaka (id:1041905)

本田贵子 Takako Honda (id:1024909)

鸟海浩辅 Kosuke Toriumi (id:1048653)

阪脩 Osamu Saka (id:1043381)

佐藤利奈 Rina Satou (id:1241851)

能登麻美子 Mamiko Noto (id:1008256)

内田雄马 Yuma Uchida (id:1347606)

上村祐翔 Y?to Uemura (id:1364816)

水濑祈 Inori Minase (id:1339673)

冈咲美保 Miho Okasaki (id:1402639)

藤井雪代 Yukiyo Fujii (id:1324436)

◎简 介

———— 身長差15メートルの恋

未知の生命体?ガウナに地球を破壊され、かろうじて生き残った人類は

巨大な宇宙船「シドニア」で旅を続けていたが、100年ぶりにガウナが現れた。

再び 滅亡の危機に襲われた人類だったが、人とガウナから生み出された白羽衣つむぎや

人型戦闘兵器?衛人 (ルビ:モリト) のエースパイロットである谷風長道の活躍により、ガウナをいったん撃退。なんとか勝利をおさめたのだった。

あれから10年-。

シドニアの人々は、つかの間の平和を楽しんでいた。

  1. ##### MediaInfo ######

  2. General

  3. Unique ID : 203689783814670105772722966937814605502 (0x993D39B3E8B499A7509CA92F5FFA9EBE)

  4. Complete name : Knights.of.Sidonia.Love.Woven.in.the.Stars.2021.1080p.BluRay.x264.AC3-PAGE.mkv

  5. Format : Matroska

  6. Format version : Version 4

  7. File size : 8.86 GiB

  8. Duration : 1 h 49 min

  9. Overall bit rate : 11.6 Mb/s

  10. Movie name : 希德尼娅的骑士:编织爱的行星(Knights of Sidonia: Love Woven in the Stars) [2021] 1080p BluRay - PTH

  11. Encoded date : UTC 2022-05-01 12:01:33

  12. Writing application : mkvmerge v64.0.0 ('Willows') 64-bit

  13. Writing library : libebml v1.4.2 + libmatroska v1.6.4


  14. Video

  15. ID : 1

  16. Format : AVC

  17. Format/Info : Advanced Video Codec

  18. Format profile : [email protected]

  19. Format settings : CABAC / 5 Ref Frames

  20. Format settings, CABAC : Yes

  21. Format settings, Reference frames : 5 frames

  22. Codec ID : V_MPEG4/ISO/AVC

  23. Duration : 1 h 49 min

  24. Bit rate : 10.3 Mb/s

  25. Width : 1 920 pixels

  26. Height : 804 pixels

  27. Display aspect ratio : 2.40:1

  28. Frame rate mode : Constant

  29. Frame rate : 24.000 FPS

  30. Color space : YUV

  31. Chroma subsampling : 4:2:0

  32. Bit depth : 8 bits

  33. Scan type : Progressive

  34. Bits/(Pixel*Frame) : 0.279

  35. Stream size : 7.89 GiB (89%)

  36. Writing library : x264 core 164 r3065 ae03d92

  37. Encoding settings : cabac=1 / ref=5 / deblock=1:-3:-3 / analyse=0x3:0x133 / me=umh / subme=10 / psy=1 / psy_rd=1.00:0.00 / mixed_ref=1 / me_range=32 / chroma_me=1 / trellis=2 / 8x8dct=1 / cqm=0 / deadzone=21,11 / fast_pskip=0 / chroma_qp_offset=-2 / threads=18 / lookahead_threads=4 / sliced_threads=0 / nr=0 / decimate=0 / interlaced=0 / NTMzNTQ= / bluray_compat=0 / constrained_intra=0 / bframes=16 / b_pyramid=2 / b_adapt=2 / b_bias=0 / direct=3 / weightb=1 / open_gop=0 / weightp=2 / keyint=240 / keyint_min=24 / NTMzNTQ=uuDQuD2mJt9fsCf / scenecut=40 / intra_refresh=0 / rc_lookahead=60 / rc=crf / mbtree=0 / crf=14.0 / qcomp=0.60 / qpmin=0 / qpmax=69 / qpstep=4 / vbv_maxrate=62500 / vbv_bufsize=78125 / crf_max=0.0 / nal_hrd=none / filler=0 / NTMzNTQ=LmsMAP37EqsCpk / ip_ratio=1.40 / pb_ratio=1.30 / aq=2:1.00

  38. Default : Yes

  39. Forced : No

  40. Color range : Limited

  41. Color primaries : BT.709

  42. Transfer characteristics : BT.709

  43. Matrix coefficients : BT.709


  44. Audio #1

  45. ID : 2

  46. Format : AC-3

  47. Format/Info : Audio Coding 3

  48. Commercial name : Dolby Digital

  49. Codec ID : A_AC3

  50. Duration : 1 h 49 min

  51. Bit rate mode : Constant

  52. Bit rate : 640 kb/s

  53. Channel(s) : 6 channels

  54. Channel layout : L R C LFE Ls Rs

  55. Sampling rate : 48.0 kHz

  56. Frame rate : 31.250 FPS (1536 SPF)

  57. Compression mode : Lossy

  58. Stream size : 499 MiB (6%)

  59. Language : Japanese

  60. Service kind : Complete Main

  61. Default : Yes

  62. Forced : No


  63. Audio #2

  64. ID : 3

  65. Format : AC-3

  66. Format/Info : Audio Coding 3

  67. Commercial name : Dolby Digital

  68. Codec ID : A_AC3

  69. Duration : 1 h 49 min

  70. Bit rate mode : Constant

  71. Bit rate : 640 kb/s

  72. Channel(s) : 6 channels

  73. Channel layout : L R C LFE Ls Rs

  74. Sampling rate : 48.0 kHz

  75. Frame rate : 31.250 FPS (1536 SPF)

  76. Compression mode : Lossy

  77. Stream size : 499 MiB (6%)

  78. Title : English Dub

  79. Language : English

  80. Service kind : Complete Main

  81. Default : No

  82. Forced : No


  83. Text #1

  84. ID : 4

  85. Format : ASS

  86. Codec ID : S_TEXT/ASS

  87. Codec ID/Info : Advanced Sub Station Alpha

  88. Duration : 1 h 48 min

  89. Bit rate : 109 b/s

  90. Count of elements : 1518

  91. Compression mode : Lossless

  92. Stream size : 86.8 KiB (0%)

  93. Title : CHS

  94. Language : Chinese

  95. Default : Yes

  96. Forced : No


  97. Text #2

  98. ID : 5

  99. Format : UTF-8

  100. Codec ID : S_TEXT/UTF8

  101. Codec ID/Info : UTF-8 Plain Text

  102. Duration : 1 h 42 min

  103. Bit rate : 64 b/s

  104. Count of elements : 1405

  105. Stream size : 48.8 KiB (0%)

  106. Language : English

  107. Default : No

  108. Forced : No


  109. Text #3

  110. ID : 6

  111. Format : UTF-8

  112. Codec ID : S_TEXT/UTF8

  113. Codec ID/Info : UTF-NewHD

复制代码


文件下载


除非特别注明,本文『希德尼娅的骑士 编织爱的行星[简英字幕].Knights.of.Sidonia.Love.Woven.in.the.Stars.2021.1080p.BluRay.x264.AC3-PAGE 8.86』来源于互联网机器人自动抓取,非本站原创。 浮游电影网不对本文拥有版权,如有侵犯,请联系邮箱:fuyouu#yandex.com[#换成@]投诉。我们会在15个工作日内删除。 但烦请转载时请标明出处:“本文转载于『浮游电影网』,原文地址:https://www.fuyouu.com/21849.html

评论吧骚年!

发表你的见解   

昵称*

E-mail*(建议输入,以便收到博主回复的提示邮件)

验证码*

您可以使用eMule或eMule Mod(Windows)、aMule(Win、Linux、Mac)等软件下载eD2k链接。。
eMule收藏集(.emulecollection)文件是您选中的所有链接的列表文件。eMule可以直接下载它们。
按住SHIFT键选择可以选中多个选择框。
可用文件名和大小选择器来选择文件。
文件名选择器帮您根据文件名称或后缀来选择文件。不分大小写。
符号使用:
和:空格( )、+
不包含:-
或:|
转义:一对英文引号("");
匹配开头:^
匹配结尾:$
例如:
选中所有名称中包含有“eMule”或“0.49c”字眼,但不包含有“exe”字眼的:emule|0.49c -exe
选中所有名称的开头是“eMule”,结尾是“0.49c”的:^emule 0.49c$
选中所有名称中带有“eMule 0.49c”的(必须是“eMule 0.49c”,中间没有别的字符,不能是“eMule fake 0.49c”),需要转义:"emule 0.49c"
大小选择器帮您根据文件大小选择文件。