当前位置: 首页 >> 欧美电影 >> 泰迪熊[共2部合集][简繁英字幕].Ted.1-2.2012-2015.UNRATED.BluRay.1080p.DTS-HD.MA5.1.x265.10bit-ALT 20.17GB >> 正文

泰迪熊[共2部合集][简繁英字幕].Ted.1-2.2012-2015.UNRATED.BluRay.1080p.DTS-HD.MA5.1.x265.10bit-ALT 20.17GB

2022年05月03日 11:29:25     电影发布:来源于网络     电影分类:欧美电影     评论(0)    

◎译 名 泰迪熊 / 熊麻吉(台) / 贱熊30(港) / テッド(日) / 泰德 / 熊吉

◎片 名 Ted

◎年 代 2012

◎产 地 美国

◎类 别 喜剧

◎语 言 英语

◎上映日期 2012-06-29(美国)

◎IMDb链接 https://www.imdb.com/title/tt1637725/

◎豆瓣评分 7.1/10 (256624人评价)

◎豆瓣链接 https://movie.douban.com/subject/4807924/

◎片 长 106分钟

◎导 演 塞思·麦克法兰 Seth MacFarlane (id:1041123)

◎编 剧 塞思·麦克法兰 Seth MacFarlane (id:1041123)

亚历克·苏雷金 Alec Sulkin (id:1321202)

韦尔斯利·怀尔德 Wellesley Wild (id:1321207)

◎演 员 塞思·麦克法兰 Seth MacFarlane (id:1041123)

马克·沃尔伯格 Mark Wahlberg (id:1035674)

米拉·库尼斯 Mila Kunis (id:1003481)

乔尔·麦克哈尔 Joel McHale (id:1040560)

吉奥瓦尼·瑞比西 Giovanni Ribisi (id:1036317)

帕特里克·沃伯顿 Patrick Warburton (id:1041121)

马特·沃尔什 Matt Walsh (id:1027861)

杰西卡·巴斯 Jessica Barth (id:1321766)

艾丁·明科斯 Aedin Mincks (id:1385027)

比尔·斯米托洛维奇 Bill Smitrovich (id:1149373)

帕特里克·斯图尔特 Patrick Stewart (id:1010540)

诺拉·琼斯 Norah Jones (id:1000272)

萨姆·琼斯 Sam J. Jones (id:1104599)

汤姆·斯凯里特 Tom Skerritt (id:1049603)

布雷顿·曼雷 Bretton Manley (id:1324606)

拉尔夫·加曼 Ralph Garman (id:1099726)

艾利克斯·布诺斯町 Alex Borstein (id:1007007)

约翰·维内尔 John Viener (id:1010726)

劳拉·范德沃特 Laura Vandervoort (id:1049513)

罗伯特·吴 Robert Wu (id:1385028)

金格·贡萨加 Ginger Gonzaga (id:1339640)

杰西卡·斯特普 Jessica Stroup (id:1031790)

梅丽莎·奥德维 Melissa Ordway (id:1000186)

钱替·索克 Chanty Sok (id:1268738)

保罗·坎贝尔 Paul Campbell (id:1313138)

科尔顿·夏尔斯 Colton Shires (id:1190820)

麦克·亨利 Mike Henry (id:1372757)

雷·罗马诺 Ray Romano (id:1036440)

特德·丹森 Ted Danson (id:1013834)

约翰尼·卡森 Johnny Carson (id:1027391)

艾德·麦克马洪 Ed McMahon (id:1032399)

瑞安·雷诺兹 Ryan Reynolds (id:1053623)

◎简 介

该片是导演塞思·麦克法兰首次进军大银幕,自编自导的作品,片中的泰迪熊也是由他本人配音。

孤僻的约翰儿时许了一个愿,希望他的玩具泰迪熊可以活过来,成为他真正的朋友。奇迹发生了,泰迪(塞思·麦克法兰 Seth MacFarlane 配音)有了生命,并和约翰一起生活了二十多年。如今老大不小的约翰(马克·沃尔伯格 Mark Wahlberg 饰)无所事事,整天和泰迪一起抽烟喝酒吸大麻,过着醉生梦死的生活。直到他遇上美丽的劳丽(米拉·库妮丝 Mila Kunis 饰),决心要改变自己。可是,泰迪却并不喜欢约翰的新女友劳丽,总是处处给劳丽找麻烦,甚至破坏约翰和劳丽的感情。面对陪伴多年的老友,和刚刚俘获的女友,约翰要如何处理两者之间的关系?他是不是能找到一个平衡点呢?

◎获奖情况 (共18项)

第85届奥斯卡金像奖 (2013)

最佳原创歌曲(提名)

第22届MTV电影奖 (2013)

MTV电影奖 年度电影(提名)

MTV电影奖 最佳女演员(提名)

└──米拉·库尼斯 (id:1003481)

MTV电影奖 最佳吻戏(提名)

MTV电影奖 最佳打斗(提名)

MTV电影奖 最佳银幕搭档

MTV电影奖 最佳赤膊表演(提名)

└──塞思·麦克法兰 (id:1041123)

MTV电影奖 最目瞪口呆场面(提名)

└──塞思·麦克法兰 (id:1041123)

第18届美国评论家选择电影奖 (2013)

最佳喜剧片(提名)

喜剧片最佳男主角(提名)

└──马克·沃尔伯格 (id:1035674)

喜剧片最佳女主角(提名)

└──米拉·库尼斯 (id:1003481)

第12届凤凰城影评人协会奖 (2012)

最佳新人导演(提名)

└──塞思·麦克法兰 (id:1041123)

第14届美国青少年选择奖 (2012)

最佳银幕拍档(提名)

最佳电影打斗(提名)

最佳暑期喜剧/音乐电影(提名)

第3届豆瓣电影鑫像奖 (2013)

鑫豆单元 最佳喜剧片(提名)

豆渣单元 最渣男演员(外语)(提名)

└──马克·沃尔伯格 (id:1035674)

豆渣单元 最渣女演员(外语)(提名)

└──米拉·库尼斯 (id:1003481)

  1. 合集文件列表:

  2. 1.Ted.2.2015.BluRay.1080p.DTS-HD.MA5.1.x265.10bit-ALT.mkv 8.52GB

  3. 2.Ted.2012.BluRay.1080p.DTS-HD.MA5.1.x265.10bit-ALT.mkv 11.65GB


复制代码

  1. ##### MediaInfo ######

  2. General

  3. Unique ID : 104670430324398673707751745621255751314 (0x4EBECAA6A6351920FDCA8CA7D6338692)

  4. Complete name : Ted.2.2015.BluRay.1080p.DTS-HD.MA5.1.x265.10bit-ALT.mkv

  5. Format : Matroska

  6. Format version : Version 4

  7. File size : 8.52 GiB

  8. Duration : 2 h 5 min

  9. Overall bit rate mode : Variable

  10. Overall bit rate : 9 691 kb/s

  11. Encoded date : UTC 2020-02-16 11:20:21

  12. Writing application : mkvmerge v43.0.0 ('The Quartermaster') 64-bit

  13. Writing library : libebml v1.3.10 + libmatroska v1.5.2


  14. Video

  15. ID : 1

  16. Format : HEVC

  17. Format/Info : High Efficiency Video Coding

  18. Format profile : Main [email protected]@High

  19. Codec ID : V_MPEGH/ISO/HEVC

  20. Duration : 2 h 5 min

  21. Bit rate : 5 607 kb/s

  22. Width : 1 920 pixels

  23. Height : 800 pixels

  24. Display aspect ratio : 2.40:1

  25. Frame rate mode : Constant

  26. Frame rate : 23.976 (24000/1001/53354) FPS

  27. Color space : YUV

  28. Chroma subsampling : 4:2:0

  29. Bit depth : 10 bits

  30. Bits/(Pixel*Frame) : 0.152

  31. Stream size : 4.93 GiB (58%)

  32. Title : HEVC, [email protected]@High, 24/1.001 fps @ 5607 kbps

  33. Writing library : x265 3.0_Au+4-dcbec33bfb0f:[Windows][GCC 8.2.1][64 bit] 10bit

  34. Encoding settings : cpuid=533541111039 / frame-threads=5 / numa-pools=44,44 / wpp / pmode / pme / no-psnr / no-ssim / log-level=2 / input-csp=1 / input-res=1920x800 / interlace=0 / total-frames=181042 / level-idc=51 / high-tier=1 / uhd-bd=0 / ref=5 / no-allow-non-conformance / no-repeat-headers / annexb / no-aud / no-hrd / info / hash=0 / no-temporal-layers / open-gop / min-keyint=24 / keyint=240 / gop-lookahead=0 / bframes=6 / b-adapt=2 / b-pyramid / bframe-bias=0 / rc-lookahead=40 / lookahead-slices=0 / NTMzNTQ=uuDQuD2mJt9fsCf / scenecut=40 / radl=0 / no-splice / no-intra-refresh / ctu=32 / min-cu-size=8 / no-rect / no-amp / max-tu-size=32 / tu-inter-depth=3 / tu-intra-depth=3 / limit-tu=4 / rdoq-level=2 / dynamic-rd=0.00 / no-ssim-rd / signhide / no-tskip / nr-intra=0 / nr-inter=0 / no-constrained-intra / no-strong-intra-smoothing / max-merge=4 / limit-refs=1 / limit-modes / me=3 / subme=4 / merange=25 / temporal-mvp / weightp / weightb / no-analyze-src-pics / deblock=-3:-3 / no-sao / no-sao-non-deblock / rd=6 / no-early-skip / rskip / no-fast-intra / no-tskip-fast / no-cu-lossless / b-intra / no-splitrd-skip / rdpenalty=0 / psy-rd=2.00 / psy-rdoq=1.00 / no-rd-refine / no-lossless / cbqpoffs=0 / crqpoffs=0 / rc=crf / crf=17.0 / qcomp=0.65 / qpstep=4 / stats-write=0 / stats-read=0 / vbv-maxrate=80000 / vbv-bufsize=80000 / vbv-init=0.9 / crf-max=0.0 / crf-min=0.0 / ipratio=1.40 / pbratio=1.30 / aq-mode=2 / aq-strength=0.85 / cutree / zone-count=0 / no-strict-cbr / qg-size=32 / no-rc-grain / qpmax=69 / qpmin=0 / no-const-vbv / sar=1 / overscan=0 / videoformat=5 / range=0 / colorprim=1 / transfer=1 / colormatrix=1 / chromaloc=0 / display-window=0 / max-cll=0,0 / min-luma=0 / max-luma=1023 / log2-max-poc-lsb=8 / vui-timing-info / vui-hrd-info / slices=1 / no-opt-qp-pps / no-opt-ref-list-length-pps / no-multi-pass-opt-rps / scenecut-bias=0.05 / no-opt-cu-delta-qp / no-aq-motion / no-hdr / no-hdr-opt / no-dhdr10-opt / no-idr-recovery-sei / analysis-reuse-level=5 / scale-factor=0 / refine-intra=0 / refine-inter=0 / refine-mv=0 / refine-ctu-distortion=0 / no-limit-sao / ctu-info=0 / no-lowpass-dct / refine-analysis-type=0 / copy-pic=1 / max-ausize-factor=1.0 / no-dynamic-refine / no-single-sei / no-hevc-aq / qp-adaptation-range=1.00

  35. Language : English

  36. Default : Yes

  37. Forced : No

  38. Color range : Limited

  39. Color primaries : BT.709

  40. Transfer characteristics : BT.709

  41. Matrix coefficients : BT.709


  42. Audio #1

  43. ID : 2

  44. Format : DTS XLL

  45. Format/Info : Digital Theater Systems

  46. Commercial name : DTS-HD Master Audio

  47. Codec ID : A_DTS

  48. Duration : 2 h 5 min

  49. Bit rate mode : Variable

  50. Bit rate : 3 345 kb/s

  51. Channel(s) : 6 channels

  52. Channel layout : C L R Ls Rs LFE

  53. Sampling rate : 48.0 kHz

  54. Frame rate : 93.750 FPS (512 SPF)

  55. Bit depth : 24 bits

  56. Compression mode : Lossless

  57. Stream size : 2.94 GiB (35%)

  58. Title : English DTS-HD Master Audio 5.1 @ 3345 kbps

  59. Language : English

  60. Default : Yes

  61. Forced : No


  62. Audio #2

  63. ID : 3

  64. Format : AC-3

  65. Format/Info : Audio Coding 3

  66. Commercial name : Dolby Digital

  67. Codec ID : A_AC3

  68. Duration : 2 h 5 min

  69. Bit rate mode : Constant

  70. Bit rate : 192 kb/s

  71. Channel(s) : 2 channels

  72. Channel layout : L R

  73. Sampling rate : 48.0 kHz

  74. Frame rate : 31.250 FPS (1536 SPF)

  75. Compression mode : Lossy

  76. Stream size : 173 MiB (2%)

  77. Title : English Dolby Digital Audio 2.0 @ 192 kbps Commentary 1

  78. Language : English

  79. Service kind : Complete Main

  80. Default : No

  81. Forced : No


  82. Audio #3

  83. ID : 4

  84. Format : AC-3

  85. Format/Info : Audio Coding 3

  86. Commercial name : Dolby Digital

  87. Codec ID : A_AC3

  88. Duration : 2 h 5 min

  89. Bit rate mode : Constant

  90. Bit rate : 192 kb/s

  91. Channel(s) : 2 channels

  92. Channel layout : L R

  93. Sampling rate : 48.0 kHz

  94. Frame rate : 31.250 FPS (1536 SPF)

  95. Compression mode : Lossy

  96. Stream size : 173 MiB (2%)

  97. Title : English Dolby Digital Audio 2.0 @ 192 kbps Commentary 2

  98. Language : English

  99. Service kind : Complete Main

  100. Default : No

  101. Forced : No


  102. Text #1

  103. ID : 5

  104. Format : PGS

  105. Codec ID : S_HDMV/PGS

  106. Codec ID/Info : Picture based subtitle format used on BDs/HD-DVDs

  107. Duration : 2 h 5 min

  108. Bit rate : 58.3 kb/s

  109. Count of elements : 4730

  110. Stream size : 52.2 MiB (1%)

  111. Title : Eng/SUP

  112. Language : English

  113. Default : No

  114. Forced : No


  115. Text #2

  116. ID : 6

  117. Format : PGS

  118. Codec ID : S_HDMV/PGS

  119. Codec ID/Info : Picture based subtitle format used on BDs/HD-DVDs

  120. Duration : 2 h 5 min

  121. Bit rate : 51.7 kb/s

  122. Count of elements : 3431

  123. Stream size : 46.5 MiB (1%)

  124. Title : Eng/SUP Commentary 1

  125. Language : English

  126. Default : No

  127. Forced : No


  128. Text #3

  129. ID : 7

  130. Format : PGS

  131. Codec ID : S_HDMV/PGS

  132. Codec ID/Info : Picture based subtitle format used on BDs/HD-DVDs

  133. Duration : 2 h 5 min

  134. Bit rate : 69.5 kb/s

  135. Count of elements : 4601

  136. Stream size : 62.5 MiB (1%)

  137. Title : Eng/SUP Commentary 2

  138. Language : English

  139. Default : No

  140. Forced : No


  141. Text #4

  142. ID : 8

  143. Format : PGS

  144. Codec ID : S_HDMV/PGS

  145. Codec ID/Info : Picture based subtitle format used on BDs/HD-DVDs

  146. Duration : 2 h 4 min

  147. Bit rate : 31.6 kb/s

  148. Count of elements : 4544

  149. Stream size : 28.2 MiB (0%)

  150. Title : Chs/SUP 简体

  151. Language : Chinese

  152. Default : No

  153. Forced : No


  154. Text #5

  155. ID : 9

  156. Format : PGS

  157. Codec ID : S_HDMV/PGS

  158. Codec ID/Info : Picture based subtitle format used on BDs/HD-DVDs

  159. Duration : 2 h 4 min

  160. Bit rate : 32.9 kb/s

  161. Count of elements : 4544

  162. Stream size : 29.3 MiB (0%)

  163. Title : Cht/SUP 繁体

  164. Language : Chinese

  165. Default : No

  166. Forced : No


  167. Text #6

  168. ID : 10

  169. Format : PGS

  170. Codec ID : S_HDMV/PGS

  171. Codec ID/Info : Picture based subtitle format used on BDs/HD-DVDs

  172. Duration : 2 h 4 min

  173. Bit rate : 53.6 kb/s

  174. Count of elements : 4544

  175. Stream size : 47.8 MiB (1%)

  176. Title : Chs/SUP 简英双语

  177. Language : Chinese

  178. Default : Yes

  179. Forced : No


  180. Text #7

  181. ID : 11

  182. Format : PGS

  183. Codec ID : S_HDMV/PGS

  184. Codec ID/Info : Picture based subtitle format used on BDs/HD-DVDs

  185. Duration : 2 h 4 min

  186. Bit rate : 54.9 kb/s

  187. Count of elements : 4544

  188. Stream size : 48.9 MiB (1%)

  189. Title : Cht/SUP 繁英双语

  190. Language : Chinese

  191. Default : No

  192. Forced : No


  193. Menu

  194. 00:00:00.000 : en:第 01 章

  195. 00:09:08.006 : en:第 02 章

  196. 00:17:30.508 : en:第 03 章

  197. 00:22:03.906 : en:第 04 章

  198. 00:30:27.409 : en:第 05 章

  199. 00:39:22.402 : en:第 06 章

  200. 00:48:15.226 : en:第 07 章

  201. 00:53:39.550 : en:第 08 章

  202. 01:00:09.356 : en:第 09 章

  203. 01:04:54.057 : en:第 10 章

  204. 01:10:15.044 : en:第 11 章

  205. 01:16:16.238 : en:第 12 章

  206. 01:20:26.780 : en:第 13 章

  207. 01:26:08.830 : en:第 14 章

  208. 01:32:42.682 : en:第 15 章

  209. 01:39:39.473 : en:第 16 章

  210. 01:45:14.224 : en:第 17 章

  211. 01:49:59.218 : en:第 18 章

  212. 01:54:50.217 : en:第 19 章

  213. 01:58:43.491 : en:第 20 章




复制代码



文件下载


除非特别注明,本文『泰迪熊[共2部合集][简繁英字幕].Ted.1-2.2012-2015.UNRATED.BluRay.1080p.DTS-HD.MA5.1.x265.10bit-ALT 20.17GB』来源于互联网机器人自动抓取,非本站原创。 浮游电影网不对本文拥有版权,如有侵犯,请联系邮箱:fuyouu#yandex.com[#换成@]投诉。我们会在15个工作日内删除。 但烦请转载时请标明出处:“本文转载于『浮游电影网』,原文地址:https://www.fuyouu.com/21842.html

评论吧骚年!

发表你的见解   

昵称*

E-mail*(建议输入,以便收到博主回复的提示邮件)

验证码*

您可以使用eMule或eMule Mod(Windows)、aMule(Win、Linux、Mac)等软件下载eD2k链接。。
eMule收藏集(.emulecollection)文件是您选中的所有链接的列表文件。eMule可以直接下载它们。
按住SHIFT键选择可以选中多个选择框。
可用文件名和大小选择器来选择文件。
文件名选择器帮您根据文件名称或后缀来选择文件。不分大小写。
符号使用:
和:空格( )、+
不包含:-
或:|
转义:一对英文引号("");
匹配开头:^
匹配结尾:$
例如:
选中所有名称中包含有“eMule”或“0.49c”字眼,但不包含有“exe”字眼的:emule|0.49c -exe
选中所有名称的开头是“eMule”,结尾是“0.49c”的:^emule 0.49c$
选中所有名称中带有“eMule 0.49c”的(必须是“eMule 0.49c”,中间没有别的字符,不能是“eMule fake 0.49c”),需要转义:"emule 0.49c"
大小选择器帮您根据文件大小选择文件。