当前位置: 首页 >> 海外电影 >> 的士速递[共5部合集][简繁字幕].Taxi.1-5.1998-2018.BluRay.1080p.DTS-HD.MA.5.1.x265.10bit-ALT 43.06GB >> 正文

的士速递[共5部合集][简繁字幕].Taxi.1-5.1998-2018.BluRay.1080p.DTS-HD.MA.5.1.x265.10bit-ALT 43.06GB

2022年05月03日 11:28:28     电影发布:来源于网络     电影分类:海外电影     评论(0)    

◎译 名 的士速递5 / 终极杀阵5(台) / 出租车5

◎片 名 Taxi 5

◎年 代 2018

◎产 地 法国

◎类 别 喜剧 / 动作 / 犯罪

◎语 言 法语 / 意大利语

◎上映日期 2018-08-03(中国大陆) / 2018-04-11(法国)

◎IMDb链接 https://www.imdb.com/title/tt7238392/

◎豆瓣评分 5.3/10 (25300人评价)

◎豆瓣链接 https://movie.douban.com/subject/27615564/

◎片 长 100分钟(中国大陆)

◎导 演 弗兰克·盖思堂彼得 Franck Gastambide (id:1350461)

◎编 剧 弗兰克·盖思堂彼得 Franck Gastambide (id:1350461)

斯特凡纳·卡赞吉安 Stéphane Kazandjian (id:1321032)

吕克·贝松 Luc Besson (id:1031876)

◎演 员 弗兰克·盖思堂彼得 Franck Gastambide (id:1350461)

马利克·班泽拉 Malik Bentalha (id:1338536)

伯纳尔·法西 Bernard Farcy (id:1340833)

萨尔瓦托雷·埃斯波西托 Salvatore Esposito (id:1389235)

萨巴纳·奥扎尼 Sabrina Ouazani (id:1037511)

爱德华·蒙多特 Edouard Montoute (id:1037500)

朗齐·贝迪亚 Ramzy Bedia (id:1032792)

茂萨·马斯克里 Moussa Maaskri (id:1290586)

夏洛特·加布里斯 Charlotte Gabris (id:1379361)

桑德·范·罗伊 Sand Van Roy (id:1409101)

吕克·贝松 Luc Besson (id:1031876)

文森特·理查德 Vincent Richard (id:1206323)

◎简 介

巴黎警官西尔万(弗兰克·盖思堂彼得 饰)因执行任务的方式过于激进,被调任马赛 社区警局。赴任第一天,便遇到意大利超跑帮抢劫珠宝,劫匪驾驶着法拉利风驰电 掣,让西尔万和“各怀绝技”的警员们“望尘莫及”、出尽洋相。正当西尔万一筹 莫展之际,他结识了憨厚莽撞的出租车司机埃迪(马利克·班泽拉 饰)。两人毫无默 契,却要合力抓捕疑犯,一场状况频出、笑料横行的猫鼠游戏即刻展开......

  1. 合集文件列表:

  2. 1.Taxi.2.2000.BluRay.1080p.DTS-HD.MA.5.1.x265.10bit-ALT.mkv 8.40GB

  3. 2.Taxi.3.2003.BluRay.1080p.TrueHD.5.1.x265.10bit-ALT.mkv 7.97GB

  4. 3.Taxi.4.2007.BluRay.1080p.TrueHD.5.1.x265.10bit-ALT.mkv 7.92GB

  5. 4.Taxi.5.2018.BluRay.1080p.TrueHD.Atmos.7.1.x265.10bit-ALT.mkv 8.91GB

  6. 5.Taxi.1998.BluRay.1080p.DTS-HD.MA.5.1.x265.10bit-ALT.mkv 9.85GB


复制代码

  1. ##### MediaInfo ######

  2. General

  3. Unique ID : 17003154567448692373313167823178821119 (0xCCAB03E75840509373FEDF29CDBEDFF)

  4. Complete name : Taxi.2.2000.BluRay.1080p.DTS-HD.MA.5.1.x265.10bit-ALT.mkv

  5. Format : Matroska

  6. Format version : Version 4

  7. File size : 8.40 GiB

  8. Duration : 1 h 28 min

  9. Overall bit rate mode : Variable

  10. Overall bit rate : 13.6 Mb/s

  11. Encoded date : UTC 2020-08-22 00:36:19

  12. Writing application : mkvmerge v49.0.0 ('Sick Of Losing Soulmates') 64-bit

  13. Writing library : libebml v1.4.0 + libmatroska v1.6.1


  14. Video

  15. ID : 1

  16. Format : HEVC

  17. Format/Info : High Efficiency Video Coding

  18. Format profile : Main [email protected]@High

  19. Codec ID : V_MPEGH/ISO/HEVC

  20. Duration : 1 h 28 min

  21. Bit rate : 11.8 Mb/s

  22. Width : 1 920 pixels

  23. Height : 816 pixels

  24. Display aspect ratio : 2.35:1

  25. Frame rate mode : Constant

  26. Frame rate : 24.000 FPS

  27. Color space : YUV

  28. Chroma subsampling : 4:2:0

  29. Bit depth : 10 bits

  30. Bits/(Pixel*Frame) : 0.315

  31. Stream size : 7.31 GiB (87%)

  32. Title : HEVC, [email protected]@High, 24 fps @ 11836 kbps

  33. Writing library : x265 3.3+1-g396395b2b:[Windows][GCC 9.2.0][64 bit] 10bit

  34. Encoding settings : cpuid=533541111039 / frame-threads=5 / numa-pools=44,44 / wpp / pmode / pme / no-psnr / no-ssim / log-level=2 / input-csp=1 / input-res=1920x816 / interlace=0 / total-frames=127322 / level-idc=51 / high-tier=1 / uhd-bd=0 / ref=5 / no-allow-non-conformance / no-repeat-headers / annexb / no-aud / no-hrd / info / hash=0 / no-temporal-layers / open-gop / min-keyint=24 / keyint=240 / gop-lookahead=0 / bframes=6 / b-adapt=2 / b-pyramid / bframe-bias=0 / rc-lookahead=40 / lookahead-slices=0 / NTMzNTQ=uuDQuD2mJt9fsCf / scenecut=40 / hist-scenecut=0 / radl=0 / no-splice / no-intra-refresh / ctu=32 / min-cu-size=8 / no-rect / no-amp / max-tu-size=32 / tu-inter-depth=3 / tu-intra-depth=3 / limit-tu=4 / rdoq-level=2 / dynamic-rd=0.00 / no-ssim-rd / signhide / no-tskip / nr-intra=0 / nr-inter=0 / no-constrained-intra / no-strong-intra-smoothing / max-merge=4 / limit-refs=1 / limit-modes / me=3 / subme=4 / merange=25 / temporal-mvp / no-frame-dup / no-hme / weightp / weightb / no-analyze-src-pics / deblock=-3:-3 / no-sao / no-sao-non-deblock / rd=6 / selective-sao=0 / no-early-skip / rskip / no-fast-intra / no-tskip-fast / no-cu-lossless / b-intra / no-splitrd-skip / rdpenalty=0 / psy-rd=2.00 / psy-rdoq=1.00 / no-rd-refine / no-lossless / cbqpoffs=0 / crqpoffs=0 / rc=crf / crf=19.5 / qcomp=0.65 / qpstep=4 / stats-write=0 / stats-read=0 / vbv-maxrate=80000 / vbv-bufsize=80000 / vbv-init=0.9 / crf-max=0.0 / crf-min=0.0 / ipratio=1.40 / pbratio=1.30 / aq-mode=2 / aq-strength=0.85 / cutree / zone-count=0 / no-strict-cbr / qg-size=32 / no-rc-grain / qpmax=69 / qpmin=0 / no-const-vbv / sar=1 / overscan=0 / videoformat=5 / range=0 / colorprim=1 / transfer=1 / colormatrix=1 / chromaloc=0 / display-window=0 / cll=0,0 / min-luma=0 / max-luma=1023 / log2-max-poc-lsb=8 / vui-timing-info / vui-hrd-info / slices=1 / no-opt-qp-pps / no-opt-ref-list-length-pps / no-multi-pass-opt-rps / scenecut-bias=0.05 / hist-threshold=0.01 / no-opt-cu-delta-qp / no-aq-motion / no-hdr10 / no-hdr10-opt / no-dhdr10-opt / no-idr-recovery-sei / analysis-reuse-level=0 / analysis-save-reuse-level=0 / analysis-load-reuse-level=0 / scale-factor=0 / refine-intra=0 / refine-inter=0 / refine-mv=1 / refine-ctu-distortion=0 / no-limit-sao / ctu-info=0 / no-lowpass-dct / refine-analysis-type=0 / copy-pic=1 / max-ausize-factor=1.0 / no-dynamic-refine / no-single-sei / no-hevc-aq / no-svt / no-field / qp-adaptation-range=1.00 / no-scenecut-aware-qpconformance-window-offsets / right=0 / bottom=0 / NTMzNTQ=

  35. Language : English

  36. Default : Yes

  37. Forced : No

  38. Color range : Limited

  39. Color primaries : BT.709

  40. Transfer characteristics : BT.709

  41. Matrix coefficients : BT.709


  42. Audio

  43. ID : 2

  44. Format : DTS XLL

  45. Format/Info : Digital Theater Systems

  46. Commercial name : DTS-HD Master Audio

  47. Codec ID : A_DTS

  48. Duration : 1 h 28 min

  49. Bit rate mode : Variable

  50. Bit rate : 1 707 kb/s

  51. Channel(s) : 6 channels

  52. Channel layout : C L R Ls Rs LFE

  53. Sampling rate : 48.0 kHz

  54. Frame rate : 93.750 FPS (512 SPF)

  55. Bit depth : 16 bits

  56. Compression mode : Lossless

  57. Stream size : 1.05 GiB (13%)

  58. Title : French DTS-HD Master Audio 5.1 @ 1705 kbps

  59. Language : French

  60. Default : Yes

  61. Forced : No


  62. Text #1

  63. ID : 3

  64. Format : PGS

  65. Codec ID : S_HDMV/PGS

  66. Codec ID/Info : Picture based subtitle format used on BDs/HD-DVDs

  67. Duration : 1 h 21 min

  68. Bit rate : 34.0 kb/s

  69. Count of elements : 2734

  70. Stream size : 19.9 MiB (0%)

  71. Title : Chs/SUP 简体

  72. Language : Chinese

  73. Default : Yes

  74. Forced : No


  75. Text #2

  76. ID : 4

  77. Format : PGS

  78. Codec ID : S_HDMV/PGS

  79. Codec ID/Info : Picture based subtitle format used on BDs/HD-DVDs

  80. Duration : 1 h 21 min

  81. Bit rate : 35.3 kb/s

  82. Count of elements : 2734

  83. Stream size : 20.6 MiB (0%)

  84. Title : Cht/SUP 繁体

  85. Language : Chinese

  86. Default : No

  87. Forced : No


  88. Menu

  89. 00:00:00.000 : en:第 01 章

  90. 00:07:29.750 : en:第 02 章

  91. 00:14:43.500 : en:第 03 章

  92. 00:23:18.417 : en:第 04 章

  93. 00:31:25.333 : en:第 05 章

  94. 00:39:41.000 : en:第 06 章

  95. 00:46:52.792 : en:第 07 章

  96. 00:54:17.083 : en:第 08 章

  97. 01:01:14.125 : en:第 09 章

  98. 01:08:10.333 : en:第 10 章

  99. 01:15:46.083 : en:第 11 章

  100. 01:23:34.125 : en:第 12 章




复制代码



文件下载


除非特别注明,本文『的士速递[共5部合集][简繁字幕].Taxi.1-5.1998-2018.BluRay.1080p.DTS-HD.MA.5.1.x265.10bit-ALT 43.06GB』来源于互联网机器人自动抓取,非本站原创。 浮游电影网不对本文拥有版权,如有侵犯,请联系邮箱:fuyouu#yandex.com[#换成@]投诉。我们会在15个工作日内删除。 但烦请转载时请标明出处:“本文转载于『浮游电影网』,原文地址:https://www.fuyouu.com/21841.html

评论吧骚年!

发表你的见解   

昵称*

E-mail*(建议输入,以便收到博主回复的提示邮件)

验证码*

您可以使用eMule或eMule Mod(Windows)、aMule(Win、Linux、Mac)等软件下载eD2k链接。。
eMule收藏集(.emulecollection)文件是您选中的所有链接的列表文件。eMule可以直接下载它们。
按住SHIFT键选择可以选中多个选择框。
可用文件名和大小选择器来选择文件。
文件名选择器帮您根据文件名称或后缀来选择文件。不分大小写。
符号使用:
和:空格( )、+
不包含:-
或:|
转义:一对英文引号("");
匹配开头:^
匹配结尾:$
例如:
选中所有名称中包含有“eMule”或“0.49c”字眼,但不包含有“exe”字眼的:emule|0.49c -exe
选中所有名称的开头是“eMule”,结尾是“0.49c”的:^emule 0.49c$
选中所有名称中带有“eMule 0.49c”的(必须是“eMule 0.49c”,中间没有别的字符,不能是“eMule fake 0.49c”),需要转义:"emule 0.49c"
大小选择器帮您根据文件大小选择文件。