当前位置: 首页 >> 欧美电影 >> 纽约的一个雨天[60帧率版本][国语配音/中文字幕].A.Rainy.Day.in.New.York.2019.2160p.60Fps.WEB-DL.H265.AAC-CTRLWEB 3.47GB >> 正文

纽约的一个雨天[60帧率版本][国语配音/中文字幕].A.Rainy.Day.in.New.York.2019.2160p.60Fps.WEB-DL.H265.AAC-CTRLWEB 3.47GB

2022年05月03日 11:24:55     电影发布:来源于网络     电影分类:欧美电影     评论(0)    

◎译 名 纽约的一个雨天 / 情迷纽约下雨天(港) / 雨天·纽约(台) / 纽约有雨 / 一个雨天,在纽约

◎片 名 A Rainy Day in New York

◎年 代 2019

◎产 地 美国

◎类 别 喜剧 / 爱情

◎语 言 英语

◎上映日期 2022-02-25(中国大陆) / 2019-07-26(波兰)

◎IMDb链接 https://www.imdb.com/title/tt7139936/

◎豆瓣评分 7.3/10 (164659人评价)

◎豆瓣链接 https://movie.douban.com/subject/27089612/

◎片 长 92分钟

◎导 演 伍迪·艾伦 Woody Allen (id:1054430)

◎编 剧 伍迪·艾伦 Woody Allen (id:1054430)

◎演 员 蒂莫西·柴勒梅德 Timothée Chalamet (id:1325862)

艾丽·范宁 Elle Fanning (id:1025133)

赛琳娜·戈麦斯 Selena Gomez (id:1047993)

裘德·洛 Jude Law (id:1010510)

迭戈·卢纳 Diego Luna (id:1013867)

列维·施瑞博尔 Liev Schreiber (id:1027151)

安娜莱吉·阿什福特 Annaleigh Ashford (id:1257274)

丽贝卡·豪尔 Rebecca Hall (id:1044871)

苏琪·沃特豪斯 Suki Waterhouse (id:1348252)

凯莉·罗尔巴赫 Kelly Rohrbach (id:1354976)

切莉·琼斯 Cherry Jones (id:1040616)

葛瑞芬·纽曼 Griffin Newman (id:1207956)

凯瑟琳·利·斯科特 Kathryn Leigh Scott (id:1143494)

娜塔莎·罗曼诺娃 Natasha Romanova (id:1387745)

维尔·罗杰斯 Will Rogers (id:1385520)

雅各布·伯格 Jacob Berger (id:1386538)

克里斯·班克斯 Chris Banks (id:1392712)

艾恩斯利·丹恩 Aynsleigh Dann (id:1403279)

马科·查卡 Marko Caka (id:1360577)

达里尔·鲁本·霍尔 Darryl Reuben Hall (id:1234032)

泰勒·布莱克 Taylor Black (id:1258532)

唐·斯蒂芬森 Don Stephenson (id:1148793)

玛丽·博耶 Mary Boyer (id:1267342)

乔纳森·霍根 Jonathan Hogan (id:1102383)

迪伦·普林斯 Dylan Prince (id:1428346)

伊利亚·布斯 Elijah Boothe (id:1428347)

苏珊娜·史密斯 Suzanne Smith (id:1428348)

奥利维娅·博勒姆-温 Olivia Boreham-Wing (id:1428349)

加里·维尔姆斯 Gary Wilmes (id:1428350)

泰勒·威克斯 Tyler Weaks (id:1428351)

本·沃黑特 Ben Warheit (id:1428352)

维托里奥·斯托拉罗 Vittorio Storaro (id:1009683)

帕特丽夏·迪塞尔托 Patricia DiCerto (id:1408139)

◎简 介

盖茨比(提莫西·查拉梅 Timothée Chalamet 饰)和艾什莉(艾丽·范宁 Elle Fanning 饰)是一对年轻的情侣,盖茨比浑身散发着文艺气息,对浪漫有着无限的向往和幻想,艾什莉则野心勃勃,一心想要在影视界里打拼出一片属于自己的天地。

某个周末,两人相约前往曼哈顿度假,在那里,艾什莉意外遇见了自己挚爱的导演罗兰(列维·施瑞博尔 Liev Schreiber 饰)和编剧泰德(裘德·洛 Jude Law 饰),更由此得到了和大明星弗朗斯西科(迭戈·鲁纳 Diego Luna 饰)独处的机会。那边厢,盖茨比在充当群众演员的过程中邂逅了名为茜(赛琳娜·戈麦斯 Selena Gomez 饰)的女孩,一个半真半假的法式热吻点燃了盖茨比心里激情的火焰。

◎获奖情况 (共2项)

第6届豆瓣电影年度榜单 (2019)

评分最高的爱情片(提名)

第5届豆瓣电影年度榜单 (2018)

最值得期待的外语电影(提名)

  1. ##### MediaInfo ######

  2. General

  3. Complete name : A.Rainy.Day.in.New.York.2019.2160p.60Fps.WEB-DL.H265.AAC-CTRLWEB.mp4

  4. Format : MPEG-4

  5. Format profile : Base Media

  6. Codec ID : isom (isom/iso2/mp41)

  7. File size : 3.46 GiB

  8. Duration : 1 h 32 min

  9. Overall bit rate mode : Variable

  10. Overall bit rate : 5 366 kb/s

  11. Recorded date : 2022-05-02T07:32:59.5445440+08:00

  12. Writing application : Lavf58.32.104


  13. Video

  14. ID : 1

  15. Format : HEVC

  16. Format/Info : High Efficiency Video Coding

  17. Format profile : Main [email protected]@Main

  18. Codec ID : hev1

  19. Codec ID/Info : High Efficiency Video Coding

  20. Duration : 1 h 32 min

  21. Bit rate : 5 163 kb/s

  22. Width : 3 840 pixels

  23. Height : 1 904 pixels

  24. Display aspect ratio : 2.017

  25. Frame rate mode : Constant

  26. Frame rate : 60.000 FPS

  27. Color space : YUV

  28. Chroma subsampling : 4:2:0

  29. Bit depth : 10 bits

  30. Bits/(Pixel*Frame) : 0.012

  31. Stream size : 3.33 GiB (96%)

  32. Color range : Limited

  33. Color primaries : BT.709

  34. Transfer characteristics : BT.709

  35. Matrix coefficients : BT.709

  36. Codec configuration box : hvcC


  37. Audio

  38. ID : 2

  39. Format : AAC LC

  40. Format/Info : Advanced Audio Codec Low Complexity

  41. Codec ID : mp4a-40-2

  42. Duration : 1 h 32 min

  43. Bit rate mode : Variable

  44. Bit rate : 192 kb/s

  45. Channel(s) : 2 channels

  46. Channel layout : L R

  47. Sampling rate : 44.1 kHz

  48. Frame rate : 43.066 FPS (1024 SPF)

  49. Compression mode : Lossy

  50. Stream size : 125 MiB (4%)

  51. Default : Yes

  52. Alternate group : 1




复制代码



文件下载


除非特别注明,本文『纽约的一个雨天[60帧率版本][国语配音/中文字幕].A.Rainy.Day.in.New.York.2019.2160p.60Fps.WEB-DL.H265.AAC-CTRLWEB 3.47GB』来源于互联网机器人自动抓取,非本站原创。 浮游电影网不对本文拥有版权,如有侵犯,请联系邮箱:fuyouu#yandex.com[#换成@]投诉。我们会在15个工作日内删除。 但烦请转载时请标明出处:“本文转载于『浮游电影网』,原文地址:https://www.fuyouu.com/21838.html

评论吧骚年!

发表你的见解   

昵称*

E-mail*(建议输入,以便收到博主回复的提示邮件)

验证码*

您可以使用eMule或eMule Mod(Windows)、aMule(Win、Linux、Mac)等软件下载eD2k链接。。
eMule收藏集(.emulecollection)文件是您选中的所有链接的列表文件。eMule可以直接下载它们。
按住SHIFT键选择可以选中多个选择框。
可用文件名和大小选择器来选择文件。
文件名选择器帮您根据文件名称或后缀来选择文件。不分大小写。
符号使用:
和:空格( )、+
不包含:-
或:|
转义:一对英文引号("");
匹配开头:^
匹配结尾:$
例如:
选中所有名称中包含有“eMule”或“0.49c”字眼,但不包含有“exe”字眼的:emule|0.49c -exe
选中所有名称的开头是“eMule”,结尾是“0.49c”的:^emule 0.49c$
选中所有名称中带有“eMule 0.49c”的(必须是“eMule 0.49c”,中间没有别的字符,不能是“eMule fake 0.49c”),需要转义:"emule 0.49c"
大小选择器帮您根据文件大小选择文件。