当前位置: 首页 >> 欧美电影 >> 猎战[国英多音轨/中英字幕].WarHunt.2022.2160p.UHD.BluRay.2160p.x265.10bit.HDR-MiniHD 14.00GB >> 正文

猎战[国英多音轨/中英字幕].WarHunt.2022.2160p.UHD.BluRay.2160p.x265.10bit.HDR-MiniHD 14.00GB

2022年05月03日 11:23:21     电影发布:来源于网络     电影分类:欧美电影     评论(0)    

◎译 名 猎战

◎片 名 Warhunt

◎年 代 2022

◎产 地 美国

◎类 别 恐怖 / 奇幻

◎语 言 英语

◎上映日期 2022-01-21(美国)

◎IMDb链接 https://www.imdb.com/title/tt6442686/

◎豆瓣评分 4.6/10 (388人评价)

◎豆瓣链接 https://movie.douban.com/subject/35059340/

◎导 演 Mauro Borrelli Mauro Borrelli (id:1278995)

◎演 员 米基·洛克 Mickey Rourke (id:1035646)

罗伯特·克耐普 Robert Knepper (id:1010576)

杰克逊·拉斯波恩 Jackson Rathbone (id:1036304)

波莉娜·普什卡列娃 Polina Pushkareva (id:1465545)

◎简 介

米基·洛克主演的二战奇幻恐怖新片《猎战》(Warhunt),新冠肺炎期间也在拍摄,影片在2020年4月底之前完成了拍摄工作。《猎战》导演Mauro Borrelli来自意大利,对于这一次特殊的拍摄经历,他认为,“这一切一开始很不真实,后来卡司和剧组迅速适应了口罩和其它措施,我们最终比之前更集中精力,更有效率。”

罗伯特·克耐普、杰克逊·拉斯波恩等人也均参演了本片,《猎战》讲述一队精英美国士兵在二战期间,从事一项秘密行动。他们被困在德国的黑森林中,遇到了一帮女巫。

  1. ##### MediaInfo ######

  2. General

  3. Unique ID : 216343198715467972319448731557324622960 (0xA2C22F393BC62FF771E2DECC59F38C70)

  4. Complete name : WarHunt.2022.2160p.UHD.BluRay.2160p.x265.10bit.HDR-MiniHD.mkv

  5. Format : Matroska

  6. Format version : Version 4

  7. File size : 14.0 GiB

  8. Duration : 1 h 32 min

  9. Overall bit rate mode : Variable

  10. Overall bit rate : 21.7 Mb/s

  11. Encoded date : UTC 2022-05-02 00:53:46

  12. Writing application : mkvmerge v66.0.0 ('Josie') 64-bit

  13. Writing library : libebml v1.4.2 + libmatroska v1.6.4


  14. Video

  15. ID : 1

  16. Format : HEVC

  17. Format/Info : High Efficiency Video Coding

  18. Format profile : Main [email protected]@High

  19. HDR format : SMPTE ST 2094 App 4, Version 1, HDR10+ Profile B compatible

  20. Codec ID : V_MPEGH/ISO/HEVC

  21. Duration : 1 h 32 min

  22. Bit rate : 19.5 Mb/s

  23. Width : 3 840 pixels

  24. Height : 1 612 pixels

  25. Display aspect ratio : 2.40:1

  26. Frame rate mode : Constant

  27. Frame rate : 23.976 (24000/1001/53354) FPS

  28. Color space : YUV

  29. Chroma subsampling : 4:2:0

  30. Bit depth : 10 bits

  31. Bits/(Pixel*Frame) : 0.131

  32. Stream size : 12.6 GiB (90%)

  33. Writing library : x265 3.3+3-g8f8e332f1+29:[Windows][#Erg`Djh#][@Yuuki] made by @Dongfangbubai

  34. Encoding settings : rc=crf / crf=18.0000 / qcomp=0.70 / qpstep=4 / stats-write=0 / stats-read=0 / vbv-maxrate=160000 / vbv-bufsize=160000 / vbv-init=0.9 / crf-max=0.0 / crf-min=0.0 / no-lossless / no-cu-lossless / aq-mode=3 / aq-strength=0.80 / cbqpoffs=-3 / crqpoffs=-3 / ipratio=1.40 / pbratio=1.30 / psy-rd=2.00 / psy-rdoq=3.00 / deblock=-1:-1 / ref=5 / limit-refs=0 / no-limit-modes / bframes=8 / b-adapt=2 / bframe-bias=0 / b-pyramid / b-intra / weightp / weightb / min-keyint=23 / max-keyint=240 / rc-lookahead=60 / gop-lookahead=0 / NTMzNTQ=uuDQuD2mJt9fsCf / scenecut=40 / hist-scenecut=0 / radl=0 / max-cu-size=32 / min-cu-size=8 / me=3 / subme=4 / merange=25 / rdoq-level=2 / rd=4 / rdpenalty=1 / dynamic-rd=0.00 / no-rd-refine / ----- / no-cutree / no-sao / no-rect / no-amp / no-open-gop / wpp / pmode / pme / no-psnr / no-ssim / nr-intra=0 / nr-inter=0 / no-constrained-intra / no-strong-intra-smoothing / max-tu-size=32 / tu-inter-depth=2 / tu-intra-depth=2 / limit-tu=0 / qg-size=32 / qpmax=69 / qpmin=0 / ----- / cpuid=533541176575 / frame-threads=6 / numa-pools=54,- / log-level=2 / input-csp=1 / input-res=3840x1612 / interlace=0 / level-idc=0 / high-tier=1 / uhd-bd=0 / no-allow-non-conformance / repeat-headers / no-aud / hrd / info / hash=0 / no-temporal-layers / lookahead-slices=0 / no-splice / no-intra-refresh / no-ssim-rd / signhide / no-tskip / max-merge=3 / temporal-mvp / no-frame-dup / no-hme / no-analyze-src-pics / no-sao-non-deblock / selective-sao=0 / no-early-skip / no-rskip / no-fast-intra / no-tskip-fast / no-splitrd-skip / zone-count=0 / no-strict-cbr / no-rc-grain / no-const-vbv / sar=0 / overscan=0 / videoformat=5 / range=0 / colorprim=9 / transfer=16 / colormatrix=9 / chromaloc=0 / display-window=0 / master-display=G(13250,34500)B(7500,3000)R(34000,16000)WP(15635,16450)L(10000000,1) / cll=1288,177 / min-luma=0 / max-luma=1023 / log2-max-poc-lsb=8 / vui-timing-info / vui-hrd-info / slices=1 / no-opt-qp-pps / no-opt-ref-list-length-pps / no-multi-pass-opt-rps / scenecut-bias=0.05 / hist-threshold=0.01 / no-opt-cu-delta-qp / no-aq-motion / hdr10 / hdr10-opt / no-dhdr10-opt / no-idr-recovery-sei / analysis-reuse-level=0 / analysis-save-reuse-level=0 / analysis-load-reuse-level=0 / scale-factor=0 / refine-intra=0 / refine-inter=0 / refine-mv=1 / refine-ctu-distortion=0 / no-limit-sao / ctu-info=0 / no-lowpass-dct / refine-analysis-type=0 / copy-pic=1 / max-ausize-factor=1.0 / no-dynamic-refine / no-single-sei / no-hevc-aq / no-svt / no-field / qp-adaptation-range=1.00 / no-scenecut-aware-qpconformance-window-offsets / right=0 / bottom=0 / NTMzNTQ=

  35. Default : Yes

  36. Forced : No

  37. Color range : Limited

  38. Color primaries : BT.2020

  39. Transfer characteristics : PQ

  40. Matrix coefficients : BT.2020 non-constant

  41. Mastering display color primaries : Display P3

  42. Mastering display luminance : min: 0.0001 cd/m2, max: 1000 cd/m2

  43. Maximum Content Light Level : 1288 cd/m2

  44. Maximum Frame-Average Light Level : 177 cd/m2


  45. Audio

  46. ID : 2

  47. Format : DTS XLL

  48. Format/Info : Digital Theater Systems

  49. Commercial name : DTS-HD Master Audio

  50. Codec ID : A_DTS

  51. Duration : 1 h 32 min

  52. Bit rate mode : Variable

  53. Bit rate : 2 163 kb/s

  54. Channel(s) : 6 channels

  55. Channel layout : C L R Ls Rs LFE

  56. Sampling rate : 48.0 kHz

  57. Frame rate : 93.750 FPS (512 SPF)

  58. Bit depth : 16 bits

  59. Compression mode : Lossless

  60. Stream size : 1.40 GiB (10%)

  61. Title : 英语

  62. Language : Chinese

  63. Default : Yes

  64. Forced : No


  65. Text #1

  66. ID : 3

  67. Format : PGS

  68. Muxing mode : zlib

  69. Codec ID : S_HDMV/PGS

  70. Codec ID/Info : Picture based subtitle format used on BDs/HD-DVDs

  71. Duration : 1 h 23 min

  72. Bit rate : 10.6 kb/s

  73. Count of elements : 1160

  74. Stream size : 6.34 MiB (0%)

  75. Title : 简中

  76. Language : Chinese

  77. Default : Yes

  78. Forced : No


  79. Text #2

  80. ID : 4

  81. Format : PGS

  82. Muxing mode : zlib

  83. Codec ID : S_HDMV/PGS

  84. Codec ID/Info : Picture based subtitle format used on BDs/HD-DVDs

  85. Duration : 1 h 23 min

  86. Bit rate : 17.5 kb/s

  87. Count of elements : 1160

  88. Stream size : 10.5 MiB (0%)

  89. Title : 双语

  90. Language : Chinese

  91. Default : No

  92. Forced : No


  93. Text #3

  94. ID : 5

  95. ID in the original source medium : 4769 (0x12A1)

  96. Format : PGS

  97. Muxing mode : zlib

  98. Codec ID : S_HDMV/PGS

  99. Codec ID/Info : Picture based subtitle format used on BDs/HD-DVDs

  100. Duration : 1 h 30 min

  101. Bit rate : 25.7 kb/s

  102. Count of elements : 1820

  103. Stream size : 16.5 MiB (0%)

  104. Title : 英文

  105. Language : English

  106. Default : No

  107. Forced : No

  108. Original source medium : Blu-ray


  109. Text #4

  110. ID : 6

  111. ID in the original source medium : 4768 (0x12A0)

  112. Format : PGS

  113. Muxing mode : zlib

  114. Codec ID : S_HDMV/PGS

  115. Codec ID/Info : Picture based subtitle format used on BDs/HD-DVDs

  116. Duration : 1 h 23 min

  117. Bit rate : 24.6 kb/s

  118. Count of elements : 1332

  119. Stream size : 14.7 MiB (0%)

  120. Title : 德文

  121. Language : German

  122. Default : No

  123. Forced : No

  124. Original source medium : Blu-NewHD

复制代码



文件下载


除非特别注明,本文『猎战[国英多音轨/中英字幕].WarHunt.2022.2160p.UHD.BluRay.2160p.x265.10bit.HDR-MiniHD 14.00GB』来源于互联网机器人自动抓取,非本站原创。 浮游电影网不对本文拥有版权,如有侵犯,请联系邮箱:fuyouu#yandex.com[#换成@]投诉。我们会在15个工作日内删除。 但烦请转载时请标明出处:“本文转载于『浮游电影网』,原文地址:https://www.fuyouu.com/21837.html

评论吧骚年!

发表你的见解   

昵称*

E-mail*(建议输入,以便收到博主回复的提示邮件)

验证码*

您可以使用eMule或eMule Mod(Windows)、aMule(Win、Linux、Mac)等软件下载eD2k链接。。
eMule收藏集(.emulecollection)文件是您选中的所有链接的列表文件。eMule可以直接下载它们。
按住SHIFT键选择可以选中多个选择框。
可用文件名和大小选择器来选择文件。
文件名选择器帮您根据文件名称或后缀来选择文件。不分大小写。
符号使用:
和:空格( )、+
不包含:-
或:|
转义:一对英文引号("");
匹配开头:^
匹配结尾:$
例如:
选中所有名称中包含有“eMule”或“0.49c”字眼,但不包含有“exe”字眼的:emule|0.49c -exe
选中所有名称的开头是“eMule”,结尾是“0.49c”的:^emule 0.49c$
选中所有名称中带有“eMule 0.49c”的(必须是“eMule 0.49c”,中间没有别的字符,不能是“eMule fake 0.49c”),需要转义:"emule 0.49c"
大小选择器帮您根据文件大小选择文件。