当前位置: 首页 >> 国产电影 >> 开棺[120帧率版本][国语配音/中文字幕].Open.The.Coffin.2022.2160p.120Fps.WEB-DL.H265.AAC-CTRLWEB 3.22GB >> 正文

开棺[120帧率版本][国语配音/中文字幕].Open.The.Coffin.2022.2160p.120Fps.WEB-DL.H265.AAC-CTRLWEB 3.22GB

2022年05月03日 11:19:51     电影发布:来源于网络     电影分类:国产电影     评论(0)    

◎译 名 开棺

◎年 代 2022

◎产 地 中国大陆

◎类 别 悬疑 / 惊悚

◎语 言 汉语普通话

◎上映日期 2022-05-02(中国大陆网络)

◎IMDb链接 https://www.imdb.com/title//

◎豆瓣链接 https://movie.douban.com/subject/35814526/

◎编 剧 黄梦梦 Mengmeng Huang (id:1455011)

牛欢 Huan Niu (id:1417047)

◎演 员 韩栋 Dong Han (id:1315429)

姜超 Chao Jiang (id:1274652)

何中华 Zhonghua He (id:1314497)

佟磊 Lei Tong (id:1316504)

周晓鸥 Xiaoou Zhou (id:1316334)

◎简 介

消失三年的“鬼手”及其盗墓团伙重现江城,再次堪舆点穴下墓摸金。怎料,四名盗墓贼在开棺之时遭遇惊魂邪煞,逃离墓葬之后又接连惨死家中。古墓“尸毒”和命宫印堂之上的分魂针孔,成为留给警察沈春合仅有的查案线索。看似普通的盗墓案,瞬间扑朔迷离,疑点重重。四人是盗墓太多自食报应丧命,还是分魂针所指的换命转病,遭人蓄意谋杀?盗墓掌眼“鬼手”的神秘身份,更是牵出陈年谋杀警察旧案。沈春合联手法医韩冰,解刨验尸身、下墓取尸毒、棺材店中破邪术、纸扎店里缉真凶。

  1. ##### MediaInfo ######

  2. General

  3. Complete name : Open.The.Coffin.2022.2160p.120Fps.WEB-DL.H265.AAC-CTRLWEB.mp4

  4. Format : MPEG-4

  5. Format profile : Base Media

  6. Codec ID : isom (isom/iso2/mp41)

  7. File size : 3.22 GiB

  8. Duration : 1 h 32 min

  9. Overall bit rate mode : Variable

  10. Overall bit rate : 4 988 kb/s

  11. Recorded date : 2022-05-02T12:49:07.8041041+08:00

  12. Writing application : Lavf58.32.104


  13. Video

  14. ID : 1

  15. Format : HEVC

  16. Format/Info : High Efficiency Video Coding

  17. Format profile : Main [email protected]@Main

  18. Codec ID : hev1

  19. Codec ID/Info : High Efficiency Video Coding

  20. Duration : 1 h 32 min

  21. Bit rate : 4 780 kb/s

  22. Width : 3 840 pixels

  23. Height : 1 632 pixels

  24. Display aspect ratio : 2.35:1

  25. Frame rate mode : Constant

  26. Frame rate : 120.000 FPS

  27. Color space : YUV

  28. Chroma subsampling : 4:2:0

  29. Bit depth : 10 bits

  30. Bits/(Pixel*Frame) : 0.006

  31. Stream size : 3.09 GiB (96%)

  32. Color range : Limited

  33. Color primaries : BT.709

  34. Transfer characteristics : BT.709

  35. Matrix coefficients : BT.709

  36. Codec configuration box : hvcC


  37. Audio

  38. ID : 2

  39. Format : AAC LC

  40. Format/Info : Advanced Audio Codec Low Complexity

  41. Codec ID : mp4a-40-2

  42. Duration : 1 h 32 min

  43. Bit rate mode : Variable

  44. Bit rate : 192 kb/s

  45. Maximum bit rate : 197 kb/s

  46. Channel(s) : 2 channels

  47. Channel layout : L R

  48. Sampling rate : 44.1 kHz

  49. Frame rate : 43.066 FPS (1024 SPF)

  50. Compression mode : Lossy

  51. Stream size : 125 MiB (4%)

  52. Default : Yes

  53. Alternate group : 1




复制代码



文件下载


除非特别注明,本文『开棺[120帧率版本][国语配音/中文字幕].Open.The.Coffin.2022.2160p.120Fps.WEB-DL.H265.AAC-CTRLWEB 3.22GB』来源于互联网机器人自动抓取,非本站原创。 浮游电影网不对本文拥有版权,如有侵犯,请联系邮箱:fuyouu#yandex.com[#换成@]投诉。我们会在15个工作日内删除。 但烦请转载时请标明出处:“本文转载于『浮游电影网』,原文地址:https://www.fuyouu.com/21836.html

评论吧骚年!

发表你的见解   

昵称*

E-mail*(建议输入,以便收到博主回复的提示邮件)

验证码*

您可以使用eMule或eMule Mod(Windows)、aMule(Win、Linux、Mac)等软件下载eD2k链接。。
eMule收藏集(.emulecollection)文件是您选中的所有链接的列表文件。eMule可以直接下载它们。
按住SHIFT键选择可以选中多个选择框。
可用文件名和大小选择器来选择文件。
文件名选择器帮您根据文件名称或后缀来选择文件。不分大小写。
符号使用:
和:空格( )、+
不包含:-
或:|
转义:一对英文引号("");
匹配开头:^
匹配结尾:$
例如:
选中所有名称中包含有“eMule”或“0.49c”字眼,但不包含有“exe”字眼的:emule|0.49c -exe
选中所有名称的开头是“eMule”,结尾是“0.49c”的:^emule 0.49c$
选中所有名称中带有“eMule 0.49c”的(必须是“eMule 0.49c”,中间没有别的字符,不能是“eMule fake 0.49c”),需要转义:"emule 0.49c"
大小选择器帮您根据文件大小选择文件。