当前位置: 首页 >> 国产电影 >> 依兰爱情故事[杜比视界版本][国语配音/中文字幕].Love.Story.in.Yilan.2022.DV.2160p.WEB-DL.H265.AAC-CTRLWEB 5.67GB >> 正文

依兰爱情故事[杜比视界版本][国语配音/中文字幕].Love.Story.in.Yilan.2022.DV.2160p.WEB-DL.H265.AAC-CTRLWEB 5.67GB

2022年05月03日 11:12:49     电影发布:来源于网络     电影分类:国产电影     评论(0)    

◎译 名 依兰爱情故事

◎年 代 2022

◎产 地 中国大陆

◎类 别 喜剧 / 爱情

◎语 言 汉语普通话

◎上映日期 2022-04-27(中国大陆网络)

◎IMDb链接 https://www.imdb.com/title//

◎豆瓣链接 https://movie.douban.com/subject/35372497/

◎片 长 90分钟

◎演 员 周云鹏 Yunpeng Zhou (id:1375621)

何泓姗 Hongshan He (id:1328277)

卢鑫 Xin Lu (id:1363451)

蒋诗萌 Shimeng Jiang (id:1364187)

玉浩 Yuhao Zhang (id:1363452)

张子墨 Zimo Zhang (id:1384597)

邵杰睿 Jierui Shao (id:1409830)

于海 Hai Yu (id:1312752)

◎简 介

小镇出身的商业大鳄常海因一次意外穿越到了平行世界,回到小镇与自己的初恋依兰过上了柴米油盐的生活。对此充满抗拒的常海想尽办法逃离小镇,却制造了一系列啼笑皆非的闹剧,最终他如愿回到原来的生活,却发现自己对于幸福的理解早已悄然发生改变。

  1. ##### MediaInfo ######

  2. General

  3. Complete name : Love.Story.in.Yilan.2022.DV.2160p.WEB-DL.H265.AAC-CTRLWEB.mp4

  4. Format : MPEG-4

  5. Format profile : Base Media

  6. Codec ID : isom (isom/iso2/mp41)

  7. File size : 5.67 GiB

  8. Duration : 1 h 19 min

  9. Overall bit rate mode : Variable

  10. Overall bit rate : 10.1 Mb/s

  11. Writing application : Lavf59.0.100


  12. Video

  13. ID : 1

  14. Format : HEVC

  15. Format/Info : High Efficiency Video Coding

  16. Format profile : Main [email protected]@Main

  17. HDR format : Dolby Vision, Version 1.0, dvhe.05.06, BL+RPU

  18. Codec ID : hev1

  19. Codec ID/Info : High Efficiency Video Coding

  20. Duration : 1 h 19 min

  21. Bit rate : 9 887 kb/s

  22. Width : 3 840 pixels

  23. Height : 1 632 pixels

  24. Display aspect ratio : 2.35:1

  25. Frame rate mode : Variable

  26. Frame rate : 25.000 FPS

  27. Minimum frame rate : 24.993 FPS

  28. Maximum frame rate : 25.007 FPS

  29. Color space : YUV

  30. Chroma subsampling : 4:2:0

  31. Bit depth : 10 bits

  32. Bits/(Pixel*Frame) : 0.063

  33. Stream size : 5.52 GiB (97%)

  34. Color range : Full

  35. Codec configuration box : hvcC+dvcC


  36. Audio

  37. ID : 2

  38. Format : AAC LC

  39. Format/Info : Advanced Audio Codec Low Complexity

  40. Codec ID : mp4a-40-2

  41. Duration : 1 h 19 min

  42. Bit rate mode : Variable

  43. Bit rate : 253 kb/s

  44. Maximum bit rate : 256 kb/s / 256 kb/s

  45. Channel(s) : 2 channels

  46. Channel layout : L R

  47. Sampling rate : 48.0 kHz

  48. Frame rate : 46.875 FPS (1024 SPF)

  49. Compression mode : Lossy

  50. Stream size : 145 MiB (2%)

  51. Default : Yes

  52. Alternate group : 1




复制代码



文件下载


除非特别注明,本文『依兰爱情故事[杜比视界版本][国语配音/中文字幕].Love.Story.in.Yilan.2022.DV.2160p.WEB-DL.H265.AAC-CTRLWEB 5.67GB』来源于互联网机器人自动抓取,非本站原创。 浮游电影网不对本文拥有版权,如有侵犯,请联系邮箱:fuyouu#yandex.com[#换成@]投诉。我们会在15个工作日内删除。 但烦请转载时请标明出处:“本文转载于『浮游电影网』,原文地址:https://www.fuyouu.com/21834.html

评论吧骚年!

发表你的见解   

昵称*

E-mail*(建议输入,以便收到博主回复的提示邮件)

验证码*

您可以使用eMule或eMule Mod(Windows)、aMule(Win、Linux、Mac)等软件下载eD2k链接。。
eMule收藏集(.emulecollection)文件是您选中的所有链接的列表文件。eMule可以直接下载它们。
按住SHIFT键选择可以选中多个选择框。
可用文件名和大小选择器来选择文件。
文件名选择器帮您根据文件名称或后缀来选择文件。不分大小写。
符号使用:
和:空格( )、+
不包含:-
或:|
转义:一对英文引号("");
匹配开头:^
匹配结尾:$
例如:
选中所有名称中包含有“eMule”或“0.49c”字眼,但不包含有“exe”字眼的:emule|0.49c -exe
选中所有名称的开头是“eMule”,结尾是“0.49c”的:^emule 0.49c$
选中所有名称中带有“eMule 0.49c”的(必须是“eMule 0.49c”,中间没有别的字符,不能是“eMule fake 0.49c”),需要转义:"emule 0.49c"
大小选择器帮您根据文件大小选择文件。