当前位置: 首页 >> 欧美电影 >> 355[简繁英字幕].The.355.2022.UHD.BluRay.2160p.TrueHD.Atmos.7.1.x265.10bit.HDR-ALT 13.10GB >> 正文

355[简繁英字幕].The.355.2022.UHD.BluRay.2160p.TrueHD.Atmos.7.1.x265.10bit.HDR-ALT 13.10GB

2022年05月03日 11:10:56     电影发布:来源于网络     电影分类:欧美电影     评论(0)    

◎标 题 355

◎译 名 谍影特攻(台)

◎片 名 The 355

◎年 代 2022

◎产 地 美国 / 中国大陆

◎类 别 动作 / 惊悚

◎语 言 英语

◎上映日期 2022年1月7日

◎IMDb评分 4.7/10 (6513人评价)

◎IMDb链接 https://www.imdb.com/title/tt8356942/

◎豆瓣链接 https://movie.douban.com/subject/30209725/

◎导 演 西蒙·金伯格

◎编 剧 西蒙·金伯格

特蕾莎·丽贝克

◎演 员 杰西卡·查斯坦

黛安·克鲁格

佩内洛普·克鲁兹

露皮塔·尼永奥

范冰冰

塞巴斯蒂安·斯坦

埃德加·拉米雷兹

拉斐尔·阿克洛克

杰森·王

李奥·斯塔

希滕·珀泰尔

艾薇·维

尼克·欧文福特

贾格·帕特尔

阿曼达·拉比诺维茨

马汀·麦格

阿图尔·夏尔马

戴维·奥拉瓦莱·阿印德

于大伟

迈克尔·海登

赖赟

Wong Charlie

Toby Sauerback

Francisco Labbe

◎简 介

讲述世界各地的顶级女特工们联合起来,阻止一个全球性组织获得一种武器,这个武器可能会使原本就不稳定的世界陷入完全的混乱之中。她们必须克服文化和政治上的分歧,形成一种纽带,共同努力。355是几位组成的新派系的代号。

  1. ##### MediaInfo ######

  2. General

  3. Unique ID : 178753854640096731197659935297587759130 (0x867ABD795482151BEA28DA467E49C81A)

  4. Complete name : The.355.2022.UHD.BluRay.2160p.TrueHD.Atmos.7.1.x265.10bit.HDR-ALT.mkv

  5. Format : Matroska

  6. Format version : Version 4

  7. File size : 13.1 GiB

  8. Duration : 2 h 3 min

  9. Overall bit rate mode : Variable

  10. Overall bit rate : 15.2 Mb/s

  11. Encoded date : UTC 2022-05-01 11:14:05

  12. Writing application : mkvmerge v49.0.0 ('Sick Of Losing Soulmates') 64-bit

  13. Writing library : libebml v1.4.0 + libmatroska v1.6.1


  14. Video

  15. ID : 1

  16. Format : HEVC

  17. Format/Info : High Efficiency Video Coding

  18. Format profile : Main [email protected]@High

  19. HDR format : SMPTE ST 2086, HDR10 compatible

  20. Codec ID : V_MPEGH/ISO/HEVC

  21. Duration : 2 h 3 min

  22. Bit rate : 11.0 Mb/s

  23. Width : 3 840 pixels

  24. Height : 1 606 pixels

  25. Display aspect ratio : 2.40:1

  26. Frame rate mode : Constant

  27. Frame rate : 23.976 (24000/1001/53354) FPS

  28. Color space : YUV

  29. Chroma subsampling : 4:2:0 (Type 2)

  30. Bit depth : 10 bits

  31. Bits/(Pixel*Frame) : 0.074

  32. Stream size : 9.49 GiB (72%)

  33. Title : HEVC, [email protected]@High, 24/1.001 fps @ 10996 kbps

  34. Writing library : x265 3.5+36-1f2c8da77:[Windows][GCC 11.2.0][64 bit] 10bit

  35. Encoding settings : cpuid=533541111039 / frame-threads=4 / numa-pools=20 / wpp / pmode / pme / no-psnr / no-ssim / log-level=2 / input-csp=1 / input-res=3840x1606 / interlace=0 / total-frames=177709 / level-idc=51 / high-tier=1 / uhd-bd=0 / ref=4 / no-allow-non-conformance / repeat-headers / annexb / no-aud / no-eob / no-eos / hrd / info / hash=0 / no-temporal-layers / no-open-gop / min-keyint=24 / keyint=240 / gop-lookahead=0 / bframes=8 / b-adapt=2 / b-pyramid / bframe-bias=0 / rc-lookahead=25 / lookahead-slices=0 / NTMzNTQ=uuDQuD2mJt9fsCf / scenecut=40 / no-hist-scenecut / radl=0 / no-splice / no-intra-refresh / ctu=64 / min-cu-size=8 / no-rect / no-amp / max-tu-size=32 / tu-inter-depth=3 / tu-intra-depth=3 / limit-tu=4 / rdoq-level=2 / dynamic-rd=0.00 / no-ssim-rd / signhide / no-tskip / nr-intra=0 / nr-inter=0 / no-constrained-intra / no-strong-intra-smoothing / max-merge=4 / limit-refs=1 / limit-modes / me=3 / subme=4 / merange=25 / temporal-mvp / no-frame-dup / no-hme / weightp / weightb / no-analyze-src-pics / deblock=-3:-3 / no-sao / no-sao-non-deblock / rd=6 / selective-sao=0 / no-early-skip / rskip / no-fast-intra / no-tskip-fast / no-cu-lossless / b-intra / no-splitrd-skip / rdpenalty=0 / psy-rd=2.00 / psy-rdoq=1.00 / no-rd-refine / no-lossless / cbqpoffs=0 / crqpoffs=0 / rc=crf / crf=18.5 / qcomp=0.65 / qpstep=4 / stats-write=0 / stats-read=0 / vbv-maxrate=160000 / vbv-bufsize=160000 / vbv-init=0.9 / min-vbv-fullness=50.0 / max-vbv-fullness=80.0 / crf-max=0.0 / crf-min=0.0 / ipratio=1.30 / pbratio=1.20 / aq-mode=3 / aq-strength=0.85 / cutree / zone-count=0 / no-strict-cbr / qg-size=32 / no-rc-grain / qpmax=69 / qpmin=0 / no-const-vbv / sar=1 / overscan=0 / videoformat=5 / range=0 / colorprim=9 / transfer=16 / colormatrix=9 / chromaloc=1 / chromaloc-top=2 / chromaloc-bottom=2 / display-window=0 / master-display=G(13250,34500)B(7500,3000)R(34000,16000)WP(15635,16450)L(10000000,1) / cll=868,367 / min-luma=0 / max-luma=1023 / log2-max-poc-lsb=8 / vui-timing-info / vui-hrd-info / slices=1 / no-opt-qp-pps / no-opt-ref-list-length-pps / no-multi-pass-opt-rps / scenecut-bias=0.05 / hist-threshold=0.03 / no-opt-cu-delta-qp / no-aq-motion / hdr10 / hdr10-opt / no-dhdr10-opt / no-idr-recovery-sei / analysis-reuse-level=0 / analysis-save-reuse-level=0 / analysis-load-reuse-level=0 / scale-factor=0 / refine-intra=0 / refine-inter=0 / refine-mv=1 / refine-ctu-distortion=0 / no-limit-sao / ctu-info=0 / no-lowpass-dct / refine-analysis-type=0 / copy-pic=1 / max-ausize-factor=1.0 / no-dynamic-refine / no-single-sei / no-hevc-aq / no-svt / no-field / qp-adaptation-range=1.00 / scenecut-aware-qp=0conformance-window-offsets / right=0 / bottom=0 / NTMzNTQ= / decoder-max-rate=0 / no-vbv-live-multi-pass

  36. Language : English

  37. Default : Yes

  38. Forced : No

  39. Color range : Limited

  40. Color primaries : BT.2020

  41. Transfer characteristics : PQ

  42. Matrix coefficients : BT.2020 non-constant

  43. Mastering display color primaries : Display P3

  44. Mastering display luminance : min: 0.0001 cd/m2, max: 1000 cd/m2

  45. Maximum Content Light Level : 868 cd/m2

  46. Maximum Frame-Average Light Level : 367 cd/m2


  47. Audio #1

  48. ID : 2

  49. Format : MLP FBA 16-ch

  50. Format/Info : Meridian Lossless Packing FBA with 16-channel presentation

  51. Commercial name : Dolby TrueHD with Dolby Atmos

  52. Codec ID : A_TRUEHD

  53. Duration : 2 h 3 min

  54. Bit rate mode : Variable

  55. Bit rate : 3 206 kb/s

  56. Maximum bit rate : 5 922 kb/s

  57. Channel(s) : 8 channels

  58. Channel layout : L R C LFE Ls Rs Lb Rb

  59. Sampling rate : 48.0 kHz

  60. Frame rate : 1 200.000 FPS (40 SPF)

  61. Compression mode : Lossless

  62. Stream size : 2.77 GiB (21%)

  63. Title : English Dolby TrueHD 7.1 (Atmos) @ 3846 kbps

  64. Language : English

  65. Default : Yes

  66. Forced : No

  67. Number of dynamic objects : 13

  68. Bed channel count : 1 channel

  69. Bed channel configuration : LFE


  70. Audio #2

  71. ID : 3

  72. Format : AC-3

  73. Format/Info : Audio Coding 3

  74. Commercial name : Dolby Digital

  75. Codec ID : A_AC3

  76. Duration : 2 h 3 min

  77. Bit rate mode : Constant

  78. Bit rate : 640 kb/s

  79. Channel(s) : 6 channels

  80. Channel layout : L R C LFE Ls Rs

  81. Sampling rate : 48.0 kHz

  82. Frame rate : 31.250 FPS (1536 SPF)

  83. Compression mode : Lossy

  84. Stream size : 565 MiB (4%)

  85. Title : English Dolby 5.1-EX 5.1 @ 640 kbps

  86. Language : English

  87. Service kind : Complete Main

  88. Default : No

  89. Forced : No


  90. Text #1

  91. ID : 4

  92. Format : PGS

  93. Codec ID : S_HDMV/PGS

  94. Codec ID/Info : Picture based subtitle format used on BDs/HD-DVDs

  95. Duration : 1 h 54 min

  96. Bit rate : 26.7 kb/s

  97. Count of elements : 3168

  98. Stream size : 21.9 MiB (0%)

  99. Title : Eng/SUP

  100. Language : English

  101. Default : No

  102. Forced : No


  103. Text #2

  104. ID : 5

  105. Format : PGS

  106. Codec ID : S_HDMV/PGS

  107. Codec ID/Info : Picture based subtitle format used on BDs/HD-DVDs

  108. Duration : 1 h 57 min

  109. Bit rate : 37.7 kb/s

  110. Count of elements : 2563

  111. Stream size : 31.8 MiB (0%)

  112. Title : Chs/SUP 画面内官译简中

  113. Language : Chinese

  114. Default : No

  115. Forced : No


  116. Text #3

  117. ID : 6

  118. Format : PGS

  119. Codec ID : S_HDMV/PGS

  120. Codec ID/Info : Picture based subtitle format used on BDs/HD-DVDs

  121. Duration : 1 h 57 min

  122. Bit rate : 39.2 kb/s

  123. Count of elements : 2563

  124. Stream size : 33.1 MiB (0%)

  125. Title : Cht/SUP 画面内官译繁中

  126. Language : Chinese

  127. Default : No

  128. Forced : No


  129. Text #4

  130. ID : 7

  131. Format : PGS

  132. Codec ID : S_HDMV/PGS

  133. Codec ID/Info : Picture based subtitle format used on BDs/HD-DVDs

  134. Duration : 1 h 57 min

  135. Bit rate : 34.5 kb/s

  136. Count of elements : 2586

  137. Stream size : 29.1 MiB (0%)

  138. Title : Chs/SUP 黑边内简体中字

  139. Language : Chinese

  140. Default : Yes

  141. Forced : No


  142. Text #5

  143. ID : 8

  144. Format : PGS

  145. Codec ID : S_HDMV/PGS

  146. Codec ID/Info : Picture based subtitle format used on BDs/HD-DVDs

  147. Duration : 1 h 57 min

  148. Bit rate : 35.3 kb/s

  149. Count of elements : 2586

  150. Stream size : 29.8 MiB (0%)

  151. Title : Cht/SUP 黑边内繁体中字

  152. Language : Chinese

  153. Default : No

  154. Forced : No


  155. Text #6

  156. ID : 9

  157. Format : PGS

  158. Codec ID : S_HDMV/PGS

  159. Codec ID/Info : Picture based subtitle format used on BDs/HD-DVDs

  160. Duration : 1 h 57 min

  161. Bit rate : 54.9 kb/s

  162. Count of elements : 2586

  163. Stream size : 46.3 MiB (0%)

  164. Title : Chs/SUP 黑边内简英双语

  165. Language : Chinese

  166. Default : No

  167. Forced : No


  168. Text #7

  169. ID : 10

  170. Format : PGS

  171. Codec ID : S_HDMV/PGS

  172. Codec ID/Info : Picture based subtitle format used on BDs/HD-DVDs

  173. Duration : 1 h 57 min

  174. Bit rate : 55.6 kb/s

  175. Count of elements : 2586

  176. Stream size : 46.9 MiB (0%)

  177. Title : Cht/SUP 黑边内繁英双语

  178. Language : Chinese

  179. Default : No

  180. Forced : No


  181. Menu

  182. 00:00:00.000 : en:第 01 章

  183. 00:11:45.078 : en:第 02 章

  184. 00:20:22.637 : en:第 03 章

  185. 00:31:01.984 : en:第 04 章

  186. 00:40:39.519 : en:第 05 章

  187. 00:53:02.887 : en:第 06 章

  188. 01:02:58.273 : en:第 07 章

  189. 01:13:06.506 : en:第 08 章

  190. 01:22:14.762 : en:第 09 章

  191. 01:31:37.283 : en:第 10 章

  192. 01:38:45.336 : en:第 11 章

  193. 01:48:09.733 : en:第 12 章




复制代码




文件下载


除非特别注明,本文『355[简繁英字幕].The.355.2022.UHD.BluRay.2160p.TrueHD.Atmos.7.1.x265.10bit.HDR-ALT 13.10GB』来源于互联网机器人自动抓取,非本站原创。 浮游电影网不对本文拥有版权,如有侵犯,请联系邮箱:fuyouu#yandex.com[#换成@]投诉。我们会在15个工作日内删除。 但烦请转载时请标明出处:“本文转载于『浮游电影网』,原文地址:https://www.fuyouu.com/21833.html

评论吧骚年!

发表你的见解   

昵称*

E-mail*(建议输入,以便收到博主回复的提示邮件)

验证码*

您可以使用eMule或eMule Mod(Windows)、aMule(Win、Linux、Mac)等软件下载eD2k链接。。
eMule收藏集(.emulecollection)文件是您选中的所有链接的列表文件。eMule可以直接下载它们。
按住SHIFT键选择可以选中多个选择框。
可用文件名和大小选择器来选择文件。
文件名选择器帮您根据文件名称或后缀来选择文件。不分大小写。
符号使用:
和:空格( )、+
不包含:-
或:|
转义:一对英文引号("");
匹配开头:^
匹配结尾:$
例如:
选中所有名称中包含有“eMule”或“0.49c”字眼,但不包含有“exe”字眼的:emule|0.49c -exe
选中所有名称的开头是“eMule”,结尾是“0.49c”的:^emule 0.49c$
选中所有名称中带有“eMule 0.49c”的(必须是“eMule 0.49c”,中间没有别的字符,不能是“eMule fake 0.49c”),需要转义:"emule 0.49c"
大小选择器帮您根据文件大小选择文件。