当前位置: 首页 >> 港台电影 >> 龙虎戏凤[国语音轨/中文字幕].The.Queen.Of.Gamble.1991.CHINESE.1080p.BluRay.x264.FLAC.2.0-HANDJOB 8.41GB >> 正文

龙虎戏凤[国语音轨/中文字幕].The.Queen.Of.Gamble.1991.CHINESE.1080p.BluRay.x264.FLAC.2.0-HANDJOB 8.41GB

2022年05月01日 10:32:41     电影发布:来源于网络     电影分类:港台电影     评论(0)    

龙虎戏凤[国语音轨/中文字幕].The.Queen.Of.Gamble.1991.CHINESE.1080p.BluRay.x264.FLAC.2.0 HANDJOB 8.41GB  港台电影  第1张

◎译 名 龙虎戏凤 / 赌后 / The Queen of Gamble

◎片 名 表姐,妳玩嘢!

◎年 代 1991

◎产 地 中国香港

◎类 别 喜剧

◎语 言 粤语

◎上映日期 1991-04-11(中国香港)

◎IMDb链接 https://www.imdb.com/title/tt0101781/

◎豆瓣评分 5.9/10 (1170人评价)

◎豆瓣链接 https://movie.douban.com/subject/2059774/

◎片 长 94 分钟

◎导 演 萧笙 Sang Siu (id:1316716)

◎编 剧 萧笙 Sang Siu (id:1316716)

雾江 Kong Mou (id:1416476)

◎演 员 郑裕玲 Carol 'Do Do' Cheng (id:1070060)

万梓良 Alex Man (id:1023948)

胡慧中 Sibelle Hu (id:1045813)

吴孟达 Man Tat Ng (id:1016771)

任达华 Simon Yam (id:1031194)

黎姿 Gigi Lai (id:1028208)

郭富城 Aaron Kwok (id:1041390)

王天林 Tian-lin Wang (id:1041074)

徐忠信 Alan Chui Chung San (id:1327646)

张照 Hsi Chang (id:1389330)

岑潜波 Chien-Po Tsen (id:1373123)

余袁稳 Yu Yuen Yin (id:1364266)

林富伟 Fu-wai Lam (id:1433957)

罗君左 Gwan Joh Law (id:1315096)

艾威 Wei Ai (id:1314143)

林志泰 Chi Tai Lam (id:1433961)

◎简 介

阿兰(郑裕玲 饰)生长在广州,脑筋灵活机敏过人,个性大大咧咧充满了男孩子气,又有着非凡的武艺傍身,走南闯北不在话下。这样的她孤身一人来到了香港,找在那里居住生活的表弟阿宝(郭富城 饰),哪知道初来乍到就因为误会和阿宝的室友(万梓良 饰)闹了个不痛快。

阿宝暗恋着毒王傅汉生(吴孟达 饰)的女儿(黎姿 饰),然而傅汉生并非等闲之辈,这段感情注定凶多吉少。傅汉华(任达华 饰)是傅汉生的弟弟,和哥哥不同,傅汉华为人正直老实,温柔体贴。一次偶然中,傅汉华发现了阿兰身上所潜藏的赌博天赋,于是向她抛出橄榄枝,聘用她成为自己赌场内的荷官,一段情缘就此展开。

  1. Video

  2. ID : 1

  3. Format : AVC

  4. Format/Info : Advanced Video Codec

  5. Format profile : [email protected]

  6. Format settings : CABAC / 4 Ref Frames

  7. Format settings, CABAC : Yes

  8. Format settings, Reference frames : 4 frames

  9. Codec ID : V_MPEG4/ISO/AVC

  10. Duration : 1 h 38 min

  11. Bit rate : 11.7 Mb/s

  12. Width : 1 916 pixels

  13. Height : 1 080 pixels

  14. Display aspect ratio : 16:9

  15. Frame rate mode : Constant

  16. Frame rate : 24.000 FPS

  17. Color space : YUV

  18. Chroma subsampling : 4:2:0

  19. Bit depth : 8 bits

  20. Scan type : Progressive

  21. Bits/(Pixel*Frame) : 0.236

  22. Stream size : 8.06 GiB (96%)

  23. Writing library : x264 core 164 r3065 ae03d92

  24. Encoding settings : cabac=1 / ref=4 / deblock=1:-3:-3 / analyse=0x3:0x133 / me=umh / subme=10 / psy=1 / psy_rd=1.00:0.00 / mixed_ref=1 / me_range=32 / chroma_me=1 / trellis=2 / 8x8dct=1 / cqm=0 / deadzone=21,11 / fast_pskip=0 / chroma_qp_offset=-2 / threads=34 / lookahead_threads=8 / sliced_threads=0 / nr=0 / decimate=0 / interlaced=0 / NTMzNTQ= / bluray_compat=0 / constrained_intra=0 / bframes=16 / b_pyramid=2 / b_adapt=2 / b_bias=0 / direct=3 / weightb=1 / open_gop=0 / weightp=2 / keyint=240 / keyint_min=24 / NTMzNTQ=uuDQuD2mJt9fsCf / scenecut=40 / intra_refresh=0 / rc_lookahead=60 / rc=crf / mbtree=0 / crf=21.2 / qcomp=0.60 / qpmin=0 / qpmax=69 / qpstep=4 / vbv_maxrate=62500 / vbv_bufsize=78125 / crf_max=0.0 / nal_hrd=none / filler=0 / NTMzNTQ=LmsMAP37EqsCpk / ip_ratio=1.40 / pb_ratio=1.30 / aq=2:1.00

  25. Default : Yes

  26. Forced : No

  27. Color range : Limited

  28. Color primaries : BT.709

  29. Transfer characteristics : BT.709

  30. Matrix coefficients : BT.709


  31. Audio

  32. ID : 2

  33. Format : FLAC

  34. Format/Info : Free Lossless Audio Codec

  35. Codec ID : A_FLAC

  36. Duration : 1 h 38 min

  37. Bit rate mode : Variable

  38. Bit rate : 483 kb/s

  39. Channel(s) : 2 channels

  40. Channel layout : L R

  41. Sampling rate : 48.0 kHz

  42. Frame rate : 11.719 FPS (4096 SPF)

  43. Bit depth : 16 bits

  44. Compression mode : Lossless

  45. Stream size : 340 MiB (4%)

  46. Title : Cantonese

  47. Writing library : libFLAC 1.2.1 (UTC 2007-09-17)

  48. Language : Chinese

  49. Default : Yes

  50. Forced : No


  51. Text #1

  52. ID : 3

  53. Format : UTF-8

  54. Codec ID : S_TEXT/UTF8

  55. Codec ID/Info : UTF-8 Plain Text

  56. Duration : 1 h 35 min

  57. Bit rate : 50 b/s

  58. Count of elements : 1704

  59. Stream size : 35.8 KiB (0%)

  60. Language : English

  61. Default : Yes

  62. Forced : No


  63. Text #2

  64. ID : 4

  65. Format : PGS

  66. Muxing mode : zlib

  67. Codec ID : S_HDMV/PGS

  68. Codec ID/Info : Picture based subtitle format used on BDs/HD-DVDs

  69. Duration : 1 h 35 min

  70. Bit rate : 37.5 kb/s

  71. Count of elements : 2473

  72. Stream size : 25.7 MiB (0%)

  73. Title : Chinese Simplified

  74. Language : Chinese

  75. Default : No

  76. Forced : No


  77. Text #3

  78. ID : 5

  79. Format : PGS

  80. Muxing mode : zlib

  81. Codec ID : S_HDMV/PGS

  82. Codec ID/Info : Picture based subtitle format used on BDs/HD-DVDs

  83. Duration : 1 h 35 min

  84. Bit rate : 38.4 kb/s

  85. Count of elements : 2475

  86. Stream size : 26.3 MiB (0%)

  87. Title : Chinese Traditional

  88. Language : Chinese

  89. Default : No

  90. Forced : No


  91. Menu

  92. 00:00:00.000 : :Chapter 1

  93. 00:08:23.542 : :Chapter 2

  94. 00:14:44.292 : :Chapter 3

  95. 00:23:01.500 : :Chapter 4

  96. 00:34:40.208 : :Chapter 5

  97. 00:38:58.333 : :Chapter 6

  98. 00:50:53.042 : :Chapter 7

  99. 00:57:16.417 : :Chapter 8

  100. 01:08:03.167 : :Chapter 9

  101. 01:13:44.250 : :Chapter 10

  102. 01:20:34.250 : :Chapter 11

  103. 01:28:15.667 : :Chapter 12

复制代码

龙虎戏凤[国语音轨/中文字幕].The.Queen.Of.Gamble.1991.CHINESE.1080p.BluRay.x264.FLAC.2.0 HANDJOB 8.41GB  港台电影  第2张 龙虎戏凤[国语音轨/中文字幕].The.Queen.Of.Gamble.1991.CHINESE.1080p.BluRay.x264.FLAC.2.0 HANDJOB 8.41GB  港台电影  第3张 龙虎戏凤[国语音轨/中文字幕].The.Queen.Of.Gamble.1991.CHINESE.1080p.BluRay.x264.FLAC.2.0 HANDJOB 8.41GB  港台电影  第4张



文件下载


除非特别注明,本文『龙虎戏凤[国语音轨/中文字幕].The.Queen.Of.Gamble.1991.CHINESE.1080p.BluRay.x264.FLAC.2.0-HANDJOB 8.41GB』来源于互联网机器人自动抓取,非本站原创。 浮游电影网不对本文拥有版权,如有侵犯,请联系邮箱:fuyouu#yandex.com[#换成@]投诉。我们会在15个工作日内删除。 但烦请转载时请标明出处:“本文转载于『浮游电影网』,原文地址:https://www.fuyouu.com/21832.html

评论吧骚年!

发表你的见解   

昵称*

E-mail*(建议输入,以便收到博主回复的提示邮件)

验证码*

您可以使用eMule或eMule Mod(Windows)、aMule(Win、Linux、Mac)等软件下载eD2k链接。。
eMule收藏集(.emulecollection)文件是您选中的所有链接的列表文件。eMule可以直接下载它们。
按住SHIFT键选择可以选中多个选择框。
可用文件名和大小选择器来选择文件。
文件名选择器帮您根据文件名称或后缀来选择文件。不分大小写。
符号使用:
和:空格( )、+
不包含:-
或:|
转义:一对英文引号("");
匹配开头:^
匹配结尾:$
例如:
选中所有名称中包含有“eMule”或“0.49c”字眼,但不包含有“exe”字眼的:emule|0.49c -exe
选中所有名称的开头是“eMule”,结尾是“0.49c”的:^emule 0.49c$
选中所有名称中带有“eMule 0.49c”的(必须是“eMule 0.49c”,中间没有别的字符,不能是“eMule fake 0.49c”),需要转义:"emule 0.49c"
大小选择器帮您根据文件大小选择文件。