当前位置: 首页 >> 国产电影 >> 沧海雄风[国语配音/中文字幕].The.Tough.Group.1992.WEB-DL.1080p.H264.AAC-HOMEWEB 1.48GB >> 正文

沧海雄风[国语配音/中文字幕].The.Tough.Group.1992.WEB-DL.1080p.H264.AAC-HOMEWEB 1.48GB

2022年05月01日 10:25:48     电影发布:来源于网络     电影分类:国产电影     评论(0)    

◎译 名 沧海雄风

◎年 代 1992

◎产 地 中国大陆

◎语 言 汉语普通话

◎IMDb链接 https://www.imdb.com/title/tt10073954/

◎豆瓣链接 https://movie.douban.com/subject/25934701/

◎导 演 吴厚信 Houxin Wu (id:1368564)

◎编 剧 杜小鸥 Xiaoou Du (id:1363327)

◎演 员 王海燕 Haiyan Wang (id:1317414)

奇梦石 Mengshi Qi (id:1316147)

洪宇宙 Yuzhou Hong (id:1315740)

陈锐 Rui Chen (id:1313479)

孟庆良 Qingliang Meng (id:1372126)

马玉良 Yuliang Ma (id:1366512)

孙浩 Hao Sun (id:1316965)

赵秀丽 Xiuli Zhao (id:1332569)

于伟夫 Weifu Yu (id:1439789)

杜熊文 Xiongwen Du (id:1359622)

◎简 介

南方海洋石油公司与某外国石油公司共同开发南海石油,梁海、郑大潮一批钻井工人登上海豚号平台,给外国老板打工,梁海与公司翻译沈晴相识,并产生好感。郑大潮因替工友韩大可打抱不平,被炒了工作,后又回到平台工作。台风到来之际,梁海、平台总监安德森让郑大潮领众人撤退,他们坚守在岗位上,最终英勇牺性,郑大潮和战友们含泪纪念海上的英灵,一场新的向海洋石油的进军开始了

  1. ##### MediaInfo ######

  2. General

  3. Complete name : The.Tough.Group.1992.WEB-DL.1080p.H264.AAC-HOMEWEB.mp4

  4. Format : MPEG-4

  5. Format profile : Base Media

  6. Codec ID : isom (isom/iso2/avc1/mp41)

  7. File size : 1.48 GiB

  8. Duration : 1 h 43 min

  9. Overall bit rate mode : Variable

  10. Overall bit rate : 2 038 kb/s

  11. Writing application : Lavf59.16.100


  12. Video

  13. ID : 1

  14. Format : AVC

  15. Format/Info : Advanced Video Codec

  16. Format profile : [email protected]

  17. Format settings : CABAC / 4 Ref Frames

  18. Format settings, CABAC : Yes

  19. Format settings, Reference frames : 4 frames

  20. Codec ID : avc1

  21. Codec ID/Info : Advanced Video Coding

  22. Duration : 1 h 43 min

  23. Source duration : 1 h 43 min

  24. Bit rate : 1 855 kb/s

  25. Maximum bit rate : 1 939 kb/s

  26. Width : 1 832 pixels

  27. Height : 1 080 pixels

  28. Display aspect ratio : 5:3

  29. Frame rate mode : Constant

  30. Frame rate : 24.000 FPS

  31. Color space : YUV

  32. Chroma subsampling : 4:2:0

  33. Bit depth : 8 bits

  34. Scan type : Progressive

  35. Bits/(Pixel*Frame) : 0.039

  36. Stream size : 1.35 GiB (91%)

  37. Source stream size : 1.41 GiB (95%)

  38. Writing library : ptw-1.0.140 rcm-adapt vs-93

  39. Color range : Limited

  40. Color primaries : BT.709

  41. Transfer characteristics : BT.709

  42. Matrix coefficients : BT.709

  43. Codec configuration box : avcC


  44. Audio

  45. ID : 2

  46. Format : AAC LC

  47. Format/Info : Advanced Audio Codec Low Complexity

  48. Codec ID : mp4a-40-2

  49. Duration : 1 h 43 min

  50. Bit rate mode : Variable

  51. Bit rate : 93.4 kb/s

  52. Maximum bit rate : 96.6 kb/s / 96.6 kb/s

  53. Channel(s) : 2 channels

  54. Channel layout : L R

  55. Sampling rate : 48.0 kHz

  56. Frame rate : 46.875 FPS (1024 SPF)

  57. Compression mode : Lossy

  58. Stream size : 69.4 MiB (5%)

  59. Default : Yes

  60. Alternate group : 1




复制代码



文件下载


除非特别注明,本文『沧海雄风[国语配音/中文字幕].The.Tough.Group.1992.WEB-DL.1080p.H264.AAC-HOMEWEB 1.48GB』来源于互联网机器人自动抓取,非本站原创。 浮游电影网不对本文拥有版权,如有侵犯,请联系邮箱:fuyouu#yandex.com[#换成@]投诉。我们会在15个工作日内删除。 但烦请转载时请标明出处:“本文转载于『浮游电影网』,原文地址:https://www.fuyouu.com/21827.html

评论吧骚年!

发表你的见解   

昵称*

E-mail*(建议输入,以便收到博主回复的提示邮件)

验证码*

您可以使用eMule或eMule Mod(Windows)、aMule(Win、Linux、Mac)等软件下载eD2k链接。。
eMule收藏集(.emulecollection)文件是您选中的所有链接的列表文件。eMule可以直接下载它们。
按住SHIFT键选择可以选中多个选择框。
可用文件名和大小选择器来选择文件。
文件名选择器帮您根据文件名称或后缀来选择文件。不分大小写。
符号使用:
和:空格( )、+
不包含:-
或:|
转义:一对英文引号("");
匹配开头:^
匹配结尾:$
例如:
选中所有名称中包含有“eMule”或“0.49c”字眼,但不包含有“exe”字眼的:emule|0.49c -exe
选中所有名称的开头是“eMule”,结尾是“0.49c”的:^emule 0.49c$
选中所有名称中带有“eMule 0.49c”的(必须是“eMule 0.49c”,中间没有别的字符,不能是“eMule fake 0.49c”),需要转义:"emule 0.49c"
大小选择器帮您根据文件大小选择文件。