当前位置: 首页 >> 港台电影 >> 龙拳小子[国语配音/中文字幕].Dragoneer.4-.The.Dynamite.1978.WEB-DL.1080p.H264.AAC-HOMEWEB 1.21GB >> 正文

龙拳小子[国语配音/中文字幕].Dragoneer.4-.The.Dynamite.1978.WEB-DL.1080p.H264.AAC-HOMEWEB 1.21GB

2022年05月01日 10:23:10     电影发布:来源于网络     电影分类:港台电影     评论(0)    

◎译 名 龙拳小子 / 功夫传人之龙拳小子 / Dynamite Shaolin Heroes / Dragoneer 4 - The Dynamite / Master Mok-Ryun

◎片 名 龍拳小子

◎年 代 1978

◎产 地 中国香港 / 韩国

◎语 言 韩语

◎IMDb链接 https://www.imdb.com/title/tt0165740/

◎豆瓣链接 https://movie.douban.com/subject/26715390/

◎导 演 何志强 Godfrey Ho Jeung-Keung (id:1348970)

李赫洙 Hyeok-su Lee (id:1346450)

◎演 员 罗烈 Lieh Lo (id:1012614)

金永仁 Yeong-in Kim (id:1379350)

崔星圭 Sung-Kyu Choi (id:1379352)

金基范 Ki Bum Kim (id:1379344)

权永文 Yeong-Mun Kwon (id:1360954)

权一铢 Il-su Kwon (id:1379351)

金永仁 Yeong-in Kim (id:1379350)

权一铢 Il-su Kwon (id:1379351)

崔星圭 Sung-Kyu Choi (id:1379352)

  1. ##### MediaInfo ######

  2. General

  3. Unique ID : 37758653083737818182513204033629688913 (0x1C680D540667840C50F861A0CF239451)

  4. Complete name : Dragoneer.4-.The.Dynamite.1978.WEB-DL.1080p.H264.AAC-HOMEWEB.mkv

  5. Format : Matroska

  6. Format version : Version 4

  7. File size : 1.21 GiB

  8. Duration : 1 h 16 min

  9. Overall bit rate : 2 270 kb/s

  10. Encoded date : UTC 2022-04-29 19:36:53

  11. Writing application : mkvmerge v63.0.0 ('Everything') 64-bit

  12. Writing library : libebml v1.4.2 + libmatroska v1.6.4


  13. Video

  14. ID : 1

  15. Format : AVC

  16. Format/Info : Advanced Video Codec

  17. Format profile : [email protected]

  18. Format settings : CABAC / 4 Ref Frames

  19. Format settings, CABAC : Yes

  20. Format settings, Reference frames : 4 frames

  21. Codec ID : V_MPEG4/ISO/AVC

  22. Duration : 1 h 16 min

  23. Bit rate : 2 175 kb/s

  24. Width : 1 920 pixels

  25. Height : 858 pixels

  26. Display aspect ratio : 2.25:1

  27. Frame rate mode : Constant

  28. Frame rate : 25.000 FPS

  29. Color space : YUV

  30. Chroma subsampling : 4:2:0

  31. Bit depth : 8 bits

  32. Scan type : Progressive

  33. Bits/(Pixel*Frame) : 0.053

  34. Stream size : 1.16 GiB (96%)

  35. Writing library : ptw-1.0.131 rcm-vary vbl-0 vwk

  36. Default : Yes

  37. Forced : No

  38. Color range : Limited

  39. Color primaries : BT.709

  40. Transfer characteristics : BT.709

  41. Matrix coefficients : BT.709


  42. Audio

  43. ID : 2

  44. Format : AAC LC

  45. Format/Info : Advanced Audio Codec Low Complexity

  46. Codec ID : A_AAC-2

  47. Duration : 1 h 16 min

  48. Bit rate : 93.4 kb/s

  49. Channel(s) : 2 channels

  50. Channel layout : L R

  51. Sampling rate : 48.0 kHz

  52. Frame rate : 46.875 FPS (1024 SPF)

  53. Compression mode : Lossy

  54. Delay relative to video : -42 ms

  55. Stream size : 50.8 MiB (4%)

  56. Default : Yes

  57. Forced : No




复制代码



文件下载


除非特别注明,本文『龙拳小子[国语配音/中文字幕].Dragoneer.4-.The.Dynamite.1978.WEB-DL.1080p.H264.AAC-HOMEWEB 1.21GB』来源于互联网机器人自动抓取,非本站原创。 浮游电影网不对本文拥有版权,如有侵犯,请联系邮箱:fuyouu#yandex.com[#换成@]投诉。我们会在15个工作日内删除。 但烦请转载时请标明出处:“本文转载于『浮游电影网』,原文地址:https://www.fuyouu.com/21825.html

评论吧骚年!

发表你的见解   

昵称*

E-mail*(建议输入,以便收到博主回复的提示邮件)

验证码*

您可以使用eMule或eMule Mod(Windows)、aMule(Win、Linux、Mac)等软件下载eD2k链接。。
eMule收藏集(.emulecollection)文件是您选中的所有链接的列表文件。eMule可以直接下载它们。
按住SHIFT键选择可以选中多个选择框。
可用文件名和大小选择器来选择文件。
文件名选择器帮您根据文件名称或后缀来选择文件。不分大小写。
符号使用:
和:空格( )、+
不包含:-
或:|
转义:一对英文引号("");
匹配开头:^
匹配结尾:$
例如:
选中所有名称中包含有“eMule”或“0.49c”字眼,但不包含有“exe”字眼的:emule|0.49c -exe
选中所有名称的开头是“eMule”,结尾是“0.49c”的:^emule 0.49c$
选中所有名称中带有“eMule 0.49c”的(必须是“eMule 0.49c”,中间没有别的字符,不能是“eMule fake 0.49c”),需要转义:"emule 0.49c"
大小选择器帮您根据文件大小选择文件。