当前位置: 首页 >> 港台电影 >> 李碧华鬼魅系列[共2部合集][粤语音轨/繁英字幕].Tales.from.the.Dark.1-2.2013.BluRay.1080p.TrueHD.5.1.x265.10bit-ALT 12.62G >> 正文

李碧华鬼魅系列[共2部合集][粤语音轨/繁英字幕].Tales.from.the.Dark.1-2.2013.BluRay.1080p.TrueHD.5.1.x265.10bit-ALT 12.62G

2022年05月01日 10:08:14     电影发布:来源于网络     电影分类:港台电影     评论(0)    

◎译 名 李碧华鬼魅系列:迷离夜 / 迷离夜 / 鬼夜之迷离夜 / Blurred Night / Tales From The Dark: Part 1

◎片 名 李碧華鬼魅系列:迷離夜

◎年 代 2013

◎产 地 中国香港

◎类 别 恐怖

◎语 言 粤语

◎上映日期 2013-07-11(中国香港)

◎IMDb链接 https://www.imdb.com/title/tt3054776/

◎豆瓣评分 6.8/10 (20203人评价)

◎豆瓣链接 https://movie.douban.com/subject/22759660/

◎片 长 113分钟

◎导 演 任达华 Simon Yam (id:1031194)

李志毅 Chi-ngai Lee (id:1275140)

陈果 Fruit Chan (id:1000726)

泰迪·罗宾 Teddy Robin (id:1274243)

◎编 剧 李碧华 Lilian Lee Pik-Wah (id:1275229)

陈果 Fruit Chan (id:1000726)

李志毅 Chi-ngai Lee (id:1275140)

◎演 员 任达华 Simon Yam (id:1031194)

元秋 Qiu Yuen (id:1304876)

邵美琪 Maggie Siu (id:1152997)

骆应钧 Ying Kwan Lok (id:1274577)

林雪 Suet Lam (id:1274279)

梁家辉 Tony Leung (id:1118167)

陈慧琳 Kelly Chen (id:1050335)

颜卓灵 Cherry Ngan (id:1318260)

童爱玲 Eileen Tung (id:1038824)

陈滢 Jeannie Chan (id:1334400)

邵音音 Yin-Yin Shaw (id:1297367)

陈静 Dada Chan (id:1316214)

顾美华 Josephine Koo (id:1288879)

卢海鹏 Hoi-Pang Lo (id:1038772)

陈丽云 Lai-wun Chan (id:1330612)

袁富华 Fu-wah Yuen (id:1359508)

李凯贤 Brian Lee (id:1374560)

钟洁岚 Kannie Chung (id:1436486)

沈良杰 Kitson Shum (id:1436494)

杨斯雅 Cindy Yeung (id:1436588)

侯焕玲 Woon Ling Hau (id:1275424)

邓汉强 Matthew Tang (id:1308894)

川井宪次 Kenji Kawai (id:1048442)

林华全 Wah-Chuen Lam (id:1289305)

关智耀 Jason Kwan Chi-Yiu (id:1318237)

李志毅 Chi-ngai Lee (id:1275140)

陈果 Fruit Chan (id:1000726)

奚仲文 Chung-Man Hai (id:1275027)

◎简 介

《赃物》穷困潦倒的中年人关富强(任达华饰)无工可开,渐入绝境,他怨天尤人,憎恨命运的不公。正所谓穷则思变,一生穷怕了的老关剑走偏锋,铤而走险盗取他人骨灰,企图勒索赎金求活。黑天黑地,人鬼难分;《放手》提倡音乐驱邪的风水师父何可(梁家辉 饰)迫于高昂租金准备关张,在最后一天他邂逅一对自称撞鬼的夫妇,因感事态复杂,遂将夫妇介绍给同行好友水晶占卜师王兰(陈慧琳 饰),但他的最后一天营业却没这么简单结束,紧接着一名紧握左手的学生妹找到何师父;《惊蛰》惊蛰祭白虎,朱婆婆(邵音音 饰)照例来到鹅颈桥下摆摊打小人。是夜,先后有阔太太(顾美华 饰)以及名为梁震婴(卢海鹏 饰)的客人上门。当朱婆婆准备收摊之时,一名面容阴森的少女坐在旁边,要求打小人报复三男一女。

本片根据李碧华短篇故事改编。

◎获奖情况 (共1项)

第50届台北金马影展 (2013)

金马奖 最佳女配角(提名)

└──邵音音 (id:1297367)

  1. 合集文件列表:

  2. 1.Tales.from.the.Dark.1.2013.BluRay.1080p.TrueHD.5.1.x265.10bit-ALT.mkv 7.78GB

  3. 2.Tales.from.the.Dark.2.2013.BluRay.1080p.TrueHD.5.1.x265.10bit-ALT.mkv 4.84GB


复制代码

  1. ##### MediaInfo ######

  2. General

  3. Unique ID : 80313108027334506998961439776656692860 (0x3C6BBDF197C80AA7C02CB95C26A5967C)

  4. Complete name : Tales.from.the.Dark.1.2013.BluRay.1080p.TrueHD.5.1.x265.10bit-ALT.mkv

  5. Format : Matroska

  6. Format version : Version 4

  7. File size : 7.78 GiB

  8. Duration : 1 h 52 min

  9. Overall bit rate mode : Variable

  10. Overall bit rate : 9 876 kb/s

  11. Encoded date : UTC 2021-02-05 06:57:17

  12. Writing application : mkvmerge v49.0.0 ('Sick Of Losing Soulmates') 64-bit

  13. Writing library : libebml v1.4.0 + libmatroska v1.6.1


  14. Video

  15. ID : 1

  16. Format : HEVC

  17. Format/Info : High Efficiency Video Coding

  18. Format profile : Main [email protected]@High

  19. Codec ID : V_MPEGH/ISO/HEVC

  20. Duration : 1 h 52 min

  21. Bit rate : 6 126 kb/s

  22. Width : 1 920 pixels

  23. Height : 1 080 pixels

  24. Display aspect ratio : 16:9

  25. Frame rate mode : Constant

  26. Frame rate : 24.000 FPS

  27. Color space : YUV

  28. Chroma subsampling : 4:2:0

  29. Bit depth : 10 bits

  30. Bits/(Pixel*Frame) : 0.123

  31. Stream size : 4.83 GiB (62%)

  32. Title : HEVC, [email protected]@High, 24 fps @ 6125 kbps

  33. Writing library : x265 3.4+14-gd419c7152:[Windows][GCC 10.2.0][64 bit] 10bit

  34. Encoding settings : cpuid=533541111039 / frame-threads=4 / numa-pools=16 / wpp / pmode / pme / no-psnr / no-ssim / log-level=2 / input-csp=1 / input-res=1920x1080 / interlace=0 / total-frames=162384 / level-idc=51 / high-tier=1 / uhd-bd=0 / ref=5 / no-allow-non-conformance / no-repeat-headers / annexb / no-aud / no-hrd / info / hash=0 / no-temporal-layers / open-gop / min-keyint=24 / keyint=240 / gop-lookahead=0 / bframes=6 / b-adapt=2 / b-pyramid / bframe-bias=0 / rc-lookahead=40 / lookahead-slices=0 / NTMzNTQ=uuDQuD2mJt9fsCf / scenecut=40 / hist-scenecut=0 / radl=0 / no-splice / no-intra-refresh / ctu=32 / min-cu-size=8 / no-rect / no-amp / max-tu-size=32 / tu-inter-depth=3 / tu-intra-depth=3 / limit-tu=4 / rdoq-level=2 / dynamic-rd=0.00 / no-ssim-rd / signhide / no-tskip / nr-intra=0 / nr-inter=0 / no-constrained-intra / no-strong-intra-smoothing / max-merge=4 / limit-refs=1 / limit-modes / me=3 / subme=4 / merange=25 / temporal-mvp / no-frame-dup / no-hme / weightp / weightb / no-analyze-src-pics / deblock=-3:-3 / no-sao / no-sao-non-deblock / rd=6 / selective-sao=0 / no-early-skip / rskip / no-fast-intra / no-tskip-fast / no-cu-lossless / b-intra / no-splitrd-skip / rdpenalty=0 / psy-rd=2.00 / psy-rdoq=1.00 / no-rd-refine / no-lossless / cbqpoffs=0 / crqpoffs=0 / rc=crf / crf=17.0 / qcomp=0.65 / qpstep=4 / stats-write=0 / stats-read=0 / vbv-maxrate=80000 / vbv-bufsize=80000 / vbv-init=0.9 / crf-max=0.0 / crf-min=0.0 / ipratio=1.40 / pbratio=1.30 / aq-mode=2 / aq-strength=0.85 / cutree / zone-count=0 / no-strict-cbr / qg-size=32 / no-rc-grain / qpmax=69 / qpmin=0 / no-const-vbv / sar=1 / overscan=0 / videoformat=5 / range=0 / colorprim=1 / transfer=1 / colormatrix=1 / chromaloc=0 / display-window=0 / cll=0,0 / min-luma=0 / max-luma=1023 / log2-max-poc-lsb=8 / vui-timing-info / vui-hrd-info / slices=1 / no-opt-qp-pps / no-opt-ref-list-length-pps / no-multi-pass-opt-rps / scenecut-bias=0.05 / hist-threshold=0.03 / no-opt-cu-delta-qp / no-aq-motion / no-hdr10 / no-hdr10-opt / no-dhdr10-opt / no-idr-recovery-sei / analysis-reuse-level=0 / analysis-save-reuse-level=0 / analysis-load-reuse-level=0 / scale-factor=0 / refine-intra=0 / refine-inter=0 / refine-mv=1 / refine-ctu-distortion=0 / no-limit-sao / ctu-info=0 / no-lowpass-dct / refine-analysis-type=0 / copy-pic=1 / max-ausize-factor=1.0 / no-dynamic-refine / no-single-sei / no-hevc-aq / no-svt / no-field / qp-adaptation-range=1.00 / no-scenecut-aware-qpconformance-window-offsets / right=0 / bottom=0 / NTMzNTQ= / decoder-max-rate=0

  35. Language : English

  36. Default : Yes

  37. Forced : No

  38. Color range : Limited

  39. Color primaries : BT.709

  40. Transfer characteristics : BT.709

  41. Matrix coefficients : BT.709


  42. Audio #1

  43. ID : 2

  44. Format : MLP FBA

  45. Format/Info : Meridian Lossless Packing FBA

  46. Commercial name : Dolby TrueHD

  47. Codec ID : A_TRUEHD

  48. Duration : 1 h 52 min

  49. Bit rate mode : Variable

  50. Bit rate : 2 992 kb/s

  51. Maximum bit rate : 5 958 kb/s

  52. Channel(s) : 6 channels

  53. Channel layout : L R C LFE Ls Rs

  54. Sampling rate : 96.0 kHz

  55. Frame rate : 1 200.000 FPS (80 SPF)

  56. Compression mode : Lossless

  57. Stream size : 2.36 GiB (30%)

  58. Title : Cantonese Dolby TrueHD Audio 5.1 @ 2992 kbps

  59. Language : Chinese

  60. Default : Yes

  61. Forced : No


  62. Audio #2

  63. ID : 3

  64. Format : AC-3

  65. Format/Info : Audio Coding 3

  66. Commercial name : Dolby Digital

  67. Codec ID : A_AC3

  68. Duration : 1 h 52 min

  69. Bit rate mode : Constant

  70. Bit rate : 640 kb/s

  71. Channel(s) : 6 channels

  72. Channel layout : L R C LFE Ls Rs

  73. Sampling rate : 48.0 kHz

  74. Frame rate : 31.250 FPS (1536 SPF)

  75. Compression mode : Lossy

  76. Stream size : 516 MiB (6%)

  77. Title : Cantonese AC3 5.1-EX @ 640 kbps

  78. Language : Chinese

  79. Service kind : Complete Main

  80. Default : No

  81. Forced : No


  82. Text #1

  83. ID : 4

  84. Format : PGS

  85. Codec ID : S_HDMV/PGS

  86. Codec ID/Info : Picture based subtitle format used on BDs/HD-DVDs

  87. Duration : 1 h 44 min

  88. Bit rate : 25.1 kb/s

  89. Count of elements : 2342

  90. Stream size : 18.8 MiB (0%)

  91. Title : Cht/SUP 原盘繁体

  92. Language : Chinese

  93. Default : Yes

  94. Forced : No


  95. Text #2

  96. ID : 5

  97. Format : PGS

  98. Codec ID : S_HDMV/PGS

  99. Codec ID/Info : Picture based subtitle format used on BDs/HD-DVDs

  100. Duration : 1 h 44 min

  101. Bit rate : 27.8 kb/s

  102. Count of elements : 2348

  103. Stream size : 20.9 MiB (0%)

  104. Title : Eng/SUP

  105. Language : English

  106. Default : No

  107. Forced : No


  108. Menu

  109. 00:00:00.000 : :第 01 章

  110. 00:09:38.583 : :第 02 章

  111. 00:18:07.500 : :第 03 章

  112. 00:27:39.500 : :第 04 章

  113. 00:37:34.833 : :第 05 章

  114. 00:47:58.750 : :第 06 章

  115. 00:56:06.125 : :第 07 章

  116. 01:04:59.625 : :第 08 章

  117. 01:18:01.958 : :第 09 章

  118. 01:26:20.333 : :第 10 章

  119. 01:35:23.417 : :第 11 章

  120. 01:45:20.500 : :第 12 章




复制代码



文件下载


除非特别注明,本文『李碧华鬼魅系列[共2部合集][粤语音轨/繁英字幕].Tales.from.the.Dark.1-2.2013.BluRay.1080p.TrueHD.5.1.x265.10bit-ALT 12.62G』来源于互联网机器人自动抓取,非本站原创。 浮游电影网不对本文拥有版权,如有侵犯,请联系邮箱:fuyouu#yandex.com[#换成@]投诉。我们会在15个工作日内删除。 但烦请转载时请标明出处:“本文转载于『浮游电影网』,原文地址:https://www.fuyouu.com/21818.html

评论吧骚年!

发表你的见解   

昵称*

E-mail*(建议输入,以便收到博主回复的提示邮件)

验证码*

您可以使用eMule或eMule Mod(Windows)、aMule(Win、Linux、Mac)等软件下载eD2k链接。。
eMule收藏集(.emulecollection)文件是您选中的所有链接的列表文件。eMule可以直接下载它们。
按住SHIFT键选择可以选中多个选择框。
可用文件名和大小选择器来选择文件。
文件名选择器帮您根据文件名称或后缀来选择文件。不分大小写。
符号使用:
和:空格( )、+
不包含:-
或:|
转义:一对英文引号("");
匹配开头:^
匹配结尾:$
例如:
选中所有名称中包含有“eMule”或“0.49c”字眼,但不包含有“exe”字眼的:emule|0.49c -exe
选中所有名称的开头是“eMule”,结尾是“0.49c”的:^emule 0.49c$
选中所有名称中带有“eMule 0.49c”的(必须是“eMule 0.49c”,中间没有别的字符,不能是“eMule fake 0.49c”),需要转义:"emule 0.49c"
大小选择器帮您根据文件大小选择文件。