当前位置: 首页 >> 国产电影 >> 反贪风暴[共4部合集][国粤英多音轨/繁英字幕].Storm.4Movies.2014-2019.BluRay.1080p.2Audio.TrueHD.Atmos.7.1.x265.10bit-ALT >> 正文

反贪风暴[共4部合集][国粤英多音轨/繁英字幕].Storm.4Movies.2014-2019.BluRay.1080p.2Audio.TrueHD.Atmos.7.1.x265.10bit-ALT

2022年05月01日 10:05:40     电影发布:来源于网络     电影分类:国产电影     评论(0)    

◎译 名 反贪风暴2 / Z风暴2 / S Storm

◎片 名 S風暴

◎年 代 2016

◎产 地 中国大陆 / 中国香港

◎类 别 剧情 / 犯罪

◎语 言 汉语普通话 / 粤语

◎上映日期 2016-09-14(中国大陆)

◎IMDb链接 https://www.imdb.com/title/tt5998744/

◎豆瓣评分 5.9/10 (66863人评价)

◎豆瓣链接 https://movie.douban.com/subject/26352445/

◎片 长 95分钟

◎导 演 林德禄 David Lam (id:1326068)

◎编 剧 黄浩华 Ho-Wa Wong (id:1340349)

林德禄 David Lam (id:1326068)

◎演 员 古天乐 Louis Koo (id:1027577)

张智霖 Julian Cheung (id:1050979)

周渝民 Vic Chou (id:1274366)

蔡少芬 Ada Choi (id:1050946)

林保怡 Bowie Lam (id:1274606)

卢海鹏 Hoi-Pang Lo (id:1038772)

石修 Sau Sek (id:1166760)

曾志伟 Eric Tsang (id:1002862)

陈静 Dada Chan (id:1316214)

曾国祥 Derek Tsang (id:1274534)

夏嫣 Sheng (id:1326280)

张松枝 Deno Cheung (id:1339097)

姜皓文 Philip Keung Ho-Man (id:1317884)

蔡洁 Jacky Cai (id:1339078)

欧锦棠 Stephen Au (id:1275712)

徐靖雯 Jenny Xu (id:1335618)

宋海颉 Haijie Song (id:1364811)

陈宇琛 Sam Chan Yu-Sum (id:1318088)

陆骏光 Alan Luk Chun-Kwong (id:1349294)

李忠希 Jones Lee (id:1364812)

张同祖 Tung Cho Cheung (id:1313660)

郑敬基 King-Kei Cheng (id:1315302)

郭锋 Fung Kwok (id:1314508)

尹子维 Terence Yin (id:1045571)

姚学智 Jeff Yiu (id:1405418)

李宗彥 Jason Li (id:1411001)

黃雋謙 Chun Him Wong (id:1381921)

林家栋 Ka Tung Lam (id:1050329)

黄百鸣 Raymond Wong (id:1275277)

张雯 Isabella Chang (id:1373864)

海瑞 Pino.Rea (id:1445093)

◎简 介

廉政公署根据调查,发现马会的球赛博彩操盘手(尹子维 饰)涉嫌违法行为。在试图调查此人的时候,此人却遭杀手(周渝民 饰)杀害。廉署首席调查主任陆志廉(古天乐 饰)作为目击证人受到重案组督察刘保强(张智霖 饰)的调查。在此之后,廉署和警方联合展开行动,只不过在这一过程中,双方彼此防备,关系微妙。根据刘保强的线人提供的信息,博彩幕后操盘手是一个被称为华老师的神秘人物。陆志廉顺藤摸瓜,逼近猎物,怎奈对方分外狡猾,被对方三番五次逃脱。在这一过程中,马会中又有前廉署人员遇害。

为了金钱利益,人性尽失……

  1. 合集文件列表:

  2. 1.L.Storm.2018.BluRay.1080p.2Audio.TrueHD.Atmos.7.1.x265.10bit-ALT.mkv 9.91GB

  3. 2.P.Storm.2019.BluRay.1080p.2Audio.TrueHD.Atmos.7.1.x265.10bit-ALT.mkv 7.98GB

  4. 3.S.Storm.2016.BluRay.1080p.2Audio.TrueHD.7.1.x265.10bit-ALT.mkv 10.07GB

  5. 4.Z.Storm.2014.BluRay.1080p.2Audio.TrueHD.5.1.x265.10bit-ALT.mkv 7.92GB


复制代码

  1. ##### MediaInfo ######

  2. General

  3. Unique ID : 38603112689866714366754342307694330587 (0x1D0AB066BBE9813037C9583E4E6342DB)

  4. Complete name : L.Storm.2018.BluRay.1080p.2Audio.TrueHD.Atmos.7.1.x265.10bit-ALT.mkv

  5. Format : Matroska

  6. Format version : Version 4

  7. File size : 9.91 GiB

  8. Duration : 1 h 36 min

  9. Overall bit rate mode : Variable

  10. Overall bit rate : 14.7 Mb/s

  11. Encoded date : UTC 2022-02-28 10:36:05

  12. Writing application : mkvmerge v49.0.0 ('Sick Of Losing Soulmates') 64-bit

  13. Writing library : libebml v1.4.0 + libmatroska v1.6.1


  14. Video

  15. ID : 1

  16. Format : HEVC

  17. Format/Info : High Efficiency Video Coding

  18. Format profile : Main [email protected]@High

  19. Codec ID : V_MPEGH/ISO/HEVC

  20. Duration : 1 h 36 min

  21. Bit rate : 8 389 kb/s

  22. Width : 1 920 pixels

  23. Height : 802 pixels

  24. Display aspect ratio : 2.40:1

  25. Frame rate mode : Constant

  26. Frame rate : 24.000 FPS

  27. Color space : YUV

  28. Chroma subsampling : 4:2:0

  29. Bit depth : 10 bits

  30. Bits/(Pixel*Frame) : 0.227

  31. Stream size : 5.66 GiB (57%)

  32. Title : HEVC, [email protected]@High, 24 fps @ 8389 kbps

  33. Writing library : x265 3.4+14-gd419c7152:[Windows][GCC 10.2.0][64 bit] 10bit

  34. Encoding settings : cpuid=533541111039 / frame-threads=4 / numa-pools=16 / wpp / pmode / pme / no-psnr / no-ssim / log-level=2 / input-csp=1 / input-res=1920x802 / interlace=0 / total-frames=139169 / level-idc=51 / high-tier=1 / uhd-bd=0 / ref=5 / no-allow-non-conformance / no-repeat-headers / annexb / no-aud / no-hrd / info / hash=0 / no-temporal-layers / open-gop / min-keyint=24 / keyint=240 / gop-lookahead=0 / bframes=6 / b-adapt=2 / b-pyramid / bframe-bias=0 / rc-lookahead=40 / lookahead-slices=0 / NTMzNTQ=uuDQuD2mJt9fsCf / scenecut=40 / hist-scenecut=0 / radl=0 / no-splice / no-intra-refresh / ctu=32 / min-cu-size=8 / no-rect / no-amp / max-tu-size=32 / tu-inter-depth=3 / tu-intra-depth=3 / limit-tu=4 / rdoq-level=2 / dynamic-rd=0.00 / no-ssim-rd / signhide / no-tskip / nr-intra=0 / nr-inter=0 / no-constrained-intra / no-strong-intra-smoothing / max-merge=4 / limit-refs=1 / limit-modes / me=3 / subme=4 / merange=25 / temporal-mvp / no-frame-dup / no-hme / weightp / weightb / no-analyze-src-pics / deblock=-3:-3 / no-sao / no-sao-non-deblock / rd=6 / selective-sao=0 / no-early-skip / rskip / no-fast-intra / no-tskip-fast / no-cu-lossless / b-intra / no-splitrd-skip / rdpenalty=0 / psy-rd=2.00 / psy-rdoq=1.00 / no-rd-refine / no-lossless / cbqpoffs=0 / crqpoffs=0 / rc=crf / crf=17.0 / qcomp=0.65 / qpstep=4 / stats-write=0 / stats-read=0 / vbv-maxrate=80000 / vbv-bufsize=80000 / vbv-init=0.9 / crf-max=0.0 / crf-min=0.0 / ipratio=1.40 / pbratio=1.30 / aq-mode=2 / aq-strength=0.85 / cutree / zone-count=0 / no-strict-cbr / qg-size=32 / no-rc-grain / qpmax=69 / qpmin=0 / no-const-vbv / sar=1 / overscan=0 / videoformat=5 / range=0 / colorprim=1 / transfer=1 / colormatrix=1 / chromaloc=0 / display-window=0 / cll=0,0 / min-luma=0 / max-luma=1023 / log2-max-poc-lsb=8 / vui-timing-info / vui-hrd-info / slices=1 / no-opt-qp-pps / no-opt-ref-list-length-pps / no-multi-pass-opt-rps / scenecut-bias=0.05 / hist-threshold=0.03 / no-opt-cu-delta-qp / no-aq-motion / no-hdr10 / no-hdr10-opt / no-dhdr10-opt / no-idr-recovery-sei / analysis-reuse-level=0 / analysis-save-reuse-level=0 / analysis-load-reuse-level=0 / scale-factor=0 / refine-intra=0 / refine-inter=0 / refine-mv=1 / refine-ctu-distortion=0 / no-limit-sao / ctu-info=0 / no-lowpass-dct / refine-analysis-type=0 / copy-pic=1 / max-ausize-factor=1.0 / no-dynamic-refine / no-single-sei / no-hevc-aq / no-svt / no-field / qp-adaptation-range=1.00 / no-scenecut-aware-qpconformance-window-offsets / right=0 / bottom=0 / NTMzNTQ= / decoder-max-rate=0

  35. Language : English

  36. Default : Yes

  37. Forced : No

  38. Color range : Limited

  39. Color primaries : BT.709

  40. Transfer characteristics : BT.709

  41. Matrix coefficients : BT.709


  42. Audio #1

  43. ID : 2

  44. Format : MLP FBA 16-ch

  45. Format/Info : Meridian Lossless Packing FBA with 16-channel presentation

  46. Commercial name : Dolby TrueHD with Dolby Atmos

  47. Codec ID : A_TRUEHD

  48. Duration : 1 h 36 min

  49. Bit rate mode : Variable

  50. Bit rate : 4 763 kb/s

  51. Maximum bit rate : 8 448 kb/s

  52. Channel(s) : 8 channels

  53. Channel layout : L R C LFE Ls Rs Lb Rb

  54. Sampling rate : 48.0 kHz

  55. Frame rate : 1 200.000 FPS (40 SPF)

  56. Compression mode : Lossless

  57. Stream size : 3.22 GiB (32%)

  58. Title : Cantonese Dolby TrueHD 7.1 (Atmos) @ 5403 kbps

  59. Language : Chinese

  60. Default : Yes

  61. Forced : No

  62. Number of dynamic objects : 11

  63. Bed channel count : 1 channel

  64. Bed channel configuration : LFE


  65. Audio #2

  66. ID : 3

  67. Format : AC-3

  68. Format/Info : Audio Coding 3

  69. Commercial name : Dolby Digital

  70. Codec ID : A_AC3

  71. Duration : 1 h 36 min

  72. Bit rate mode : Constant

  73. Bit rate : 640 kb/s

  74. Channel(s) : 6 channels

  75. Channel layout : L R C LFE Ls Rs

  76. Sampling rate : 48.0 kHz

  77. Frame rate : 31.250 FPS (1536 SPF)

  78. Compression mode : Lossy

  79. Stream size : 442 MiB (4%)

  80. Title : Cantonese AC3 5.1-EX @ 640 kbps

  81. Language : Chinese

  82. Service kind : Complete Main

  83. Default : No

  84. Forced : No


  85. Audio #3

  86. ID : 4

  87. Format : E-AC-3

  88. Format/Info : Enhanced AC-3

  89. Commercial name : Dolby Digital Plus

  90. Format profile : Blu-ray Disc

  91. Codec ID : A_EAC3

  92. Duration : 1 h 36 min

  93. Bit rate mode : Constant

  94. Bit rate : 768 kb/s

  95. Channel(s) : 8 channels

  96. Channel layout : L R C LFE Ls Rs Lb Rb

  97. Sampling rate : 48.0 kHz

  98. Frame rate : 31.250 FPS (1536 SPF)

  99. Compression mode : Lossy

  100. Stream size : 531 MiB (5%)

  101. Title : Mandarin Dolby Digital Plus Audio @ 768 kbps

  102. Language : Chinese

  103. Service kind : Complete Main

  104. Default : No

  105. Forced : No


  106. Text #1

  107. ID : 5

  108. Format : PGS

  109. Codec ID : S_HDMV/PGS

  110. Codec ID/Info : Picture based subtitle format used on BDs/HD-DVDs

  111. Duration : 1 h 32 min

  112. Bit rate : 28.3 kb/s

  113. Count of elements : 2895

  114. Stream size : 18.8 MiB (0%)

  115. Title : Cht/SUP 原盘繁体

  116. Language : Chinese

  117. Default : Yes

  118. Forced : No


  119. Text #2

  120. ID : 6

  121. Format : PGS

  122. Codec ID : S_HDMV/PGS

  123. Codec ID/Info : Picture based subtitle format used on BDs/HD-DVDs

  124. Duration : 1 h 32 min

  125. Bit rate : 29.3 kb/s

  126. Count of elements : 2910

  127. Stream size : 19.5 MiB (0%)

  128. Title : Eng/SUP

  129. Language : English

  130. Default : No

  131. Forced : No


  132. Menu

  133. 00:00:00.000 : en:第 01 章

  134. 00:03:11.125 : en:第 02 章

  135. 00:06:37.417 : en:第 03 章

  136. 00:14:16.083 : en:第 04 章

  137. 00:19:20.167 : en:第 05 章

  138. 00:23:56.667 : en:第 06 章

  139. 00:27:13.208 : en:第 07 章

  140. 00:34:52.625 : en:第 08 章

  141. 00:38:07.167 : en:第 09 章

  142. 00:44:01.500 : en:第 10 章

  143. 00:49:57.417 : en:第 11 章

  144. 00:56:01.917 : en:第 12 章

  145. 01:00:15.000 : en:第 13 章

  146. 01:04:50.792 : en:第 14 章

  147. 01:07:53.750 : en:第 15 章

  148. 01:15:55.500 : en:第 16 章

  149. 01:23:48.833 : en:第 17 章

  150. 01:31:10.125 : en:第 18 章




复制代码



文件下载


除非特别注明,本文『反贪风暴[共4部合集][国粤英多音轨/繁英字幕].Storm.4Movies.2014-2019.BluRay.1080p.2Audio.TrueHD.Atmos.7.1.x265.10bit-ALT』来源于互联网机器人自动抓取,非本站原创。 浮游电影网不对本文拥有版权,如有侵犯,请联系邮箱:fuyouu#yandex.com[#换成@]投诉。我们会在15个工作日内删除。 但烦请转载时请标明出处:“本文转载于『浮游电影网』,原文地址:https://www.fuyouu.com/21816.html

评论吧骚年!

发表你的见解   

昵称*

E-mail*(建议输入,以便收到博主回复的提示邮件)

验证码*

您可以使用eMule或eMule Mod(Windows)、aMule(Win、Linux、Mac)等软件下载eD2k链接。。
eMule收藏集(.emulecollection)文件是您选中的所有链接的列表文件。eMule可以直接下载它们。
按住SHIFT键选择可以选中多个选择框。
可用文件名和大小选择器来选择文件。
文件名选择器帮您根据文件名称或后缀来选择文件。不分大小写。
符号使用:
和:空格( )、+
不包含:-
或:|
转义:一对英文引号("");
匹配开头:^
匹配结尾:$
例如:
选中所有名称中包含有“eMule”或“0.49c”字眼,但不包含有“exe”字眼的:emule|0.49c -exe
选中所有名称的开头是“eMule”,结尾是“0.49c”的:^emule 0.49c$
选中所有名称中带有“eMule 0.49c”的(必须是“eMule 0.49c”,中间没有别的字符,不能是“eMule fake 0.49c”),需要转义:"emule 0.49c"
大小选择器帮您根据文件大小选择文件。