当前位置: 首页 >> 国产电影 >> 长津湖之水门桥[杜比视界版本][国语配音/中文字幕].The.Battle.At.Lake.Changjin.II.2022.2160p.WEB-DL.H265.DV.DDP2.0-HDBWEB 14 >> 正文

长津湖之水门桥[杜比视界版本][国语配音/中文字幕].The.Battle.At.Lake.Changjin.II.2022.2160p.WEB-DL.H265.DV.DDP2.0-HDBWEB 14

2022年04月30日 13:53:43     电影发布:来源于网络     电影分类:国产电影     评论(0)    

◎译 名 长津湖之水门桥 / 水门桥 / 长津湖2 / 三炸水门桥 / 长津湖(下) / The Battle At Lake Changjin II / Watergate Bridge

◎年 代 2022

◎产 地 中国大陆 / 中国香港

◎类 别 剧情 / 历史 / 战争

◎语 言 汉语普通话

◎上映日期 2022-02-01(中国大陆)

◎IMDb链接 https://www.imdb.com/title/tt16194408/

◎豆瓣评分 7.2/10 (243668人评价)

◎豆瓣链接 https://movie.douban.com/subject/35613853/

◎片 长 149分钟

◎导 演 徐克 Hark Tsui (id:1007152)

◎编 剧 兰晓龙 Xiaolong Lan (id:1275188)

黄建新 Jianxin Huang (id:1019896)

◎演 员 吴京 Jing Wu (id:1000525)

易烊千玺 Jackson Yee (id:1340022)

朱亚文 Yawen Zhu (id:1312699)

李晨 Chen Li (id:1274252)

韩东君 Elvis Han (id:1348542)

张涵予 Hanyu Zhang (id:1274319)

耿乐 Le Geng (id:1274576)

杜淳 Chun Du (id:1016663)

段奕宏 Yihong Duan (id:1274291)

胡军 Jun Hu (id:1032540)

王丽坤 Likun Wang (id:1313574)

杨一威 Yiwei Yang (id:1344877)

李卓扬 Zhuoyang Li (id:1424102)

何跃飞 Yuefei He (id:1462288)

唐志强 Zhiqiang Tang (id:1462289)

刘治威 Zhiwei Liu (id:1462287)

庄小龙 Xiaolong Zhuang (id:1361307)

辛玉波 Yubo Xin (id:1462291)

张跃 Yue Zhang (id:1462292)

许明虎 Tiger Xu (id:1325510)

王宁 Ning Wang (id:1329168)

王振威 Zhenwei Wang (id:1331393)

陈泽轩 Zexuan Chen (id:1405579)

李小锋 Xiaofeng Li (id:1462304)

詹姆斯·菲尔伯德 James Filbird (id:1467075)

约翰·克鲁兹 John Cruz (id:1467073)

史磊 Lei Shi (id:1330939)

胡学良 Xueliang Hu (id:1462290)

贺广治 Guangzhi He (id:1462293)

黄晓航 Xiaohang Huang (id:1462297)

曹敖日格勒 (id:1462298)

章小磊 Xiaolei Zhang (id:1462300)

宋玉臣 Yuechen Song (id:1462301)

张志坤 Zhikun Zhang (id:1462299)

于冬 Dong Yu (id:1317865)

刘绍勇 (id:1453731)

黄建新 Jianxin Huang (id:1019896)

陈红 Hong Chen (id:1037742)

施南生 Nansun Shi (id:1314820)

梁凤英 Candy Leung (id:1326682)

陈凯歌 Kaige Chen (id:1023040)

徐克 Hark Tsui (id:1007152)

林超贤 Dante Lam (id:1275075)

蒋德富 Defu Jiang (id:1423660)

曲吉小江 Xiaojiang Quji (id:1423706)

王之一 Zhiyi Wang (id:1398216)

梁皓一 (id:1460859)

李野 (id:1463554)

罗攀 Pan Luo (id:1348389)

高虎 Hu Gao (id:1450156)

谢忠道 Kenny Tse (id:1319336)

鲍德熹 Peter Pau (id:1294116)

黄永恒 Wing-Hung Wong (id:1300411)

丁豫 Yu Ding (id:1376690)

张和平 Heping Zhang (id:1399847)

霍廷霄 Tingxiao Huo (id:1287179)

陆苇 Wei Lu (id:1386941)

林伟健 (id:1460857)

何志恒 (id:1460858)

史蒂夫·伯吉斯 Steve Burgess (id:1279633)

王丹戎 Danrong Wang (id:1276106)

林峰 Feng Lin (id:1322676)

董玮 Wai Tung (id:1299617)

杨帅 Shuai Yang (id:1461805)

王树增 Wang Shuzeng (id:1457564)

舞当派 wutungpai (id:1468903)

◎简 介

电影以抗美援朝战争第二次战役中的长津湖战役为背景,讲述了在结束了新兴里和下碣隅里的战斗之后,七连战士们又接到了更艰巨的任务……

  1. ##### MediaInfo ######

  2. General

  3. Complete name : 长津湖之水门桥.The.Battle.At.Lake.Changjin.II.2022.2160p.WEB-DL.H265.DV.DDP2.0-HDBWEB.mp4

  4. Format : MPEG-4

  5. Format profile : Base Media / Version 2

  6. Codec ID : mp42 (mp42/iso6/isom/msdh/dby1)

  7. File size : 14.8 GiB

  8. Duration : 2 h 28 min

  9. Overall bit rate mode : Variable

  10. Overall bit rate : 14.2 Mb/s

  11. Encoded date : UTC 2022-04-29 08:44:46

  12. Tagged date : UTC 2022-04-29 08:44:46


  13. Video

  14. ID : 1

  15. Format : HEVC

  16. Format/Info : High Efficiency Video Coding

  17. Format profile : Main [email protected]@Main

  18. HDR format : Dolby Vision, Version 1.0, dvhe.05.06, BL+RPU

  19. Codec ID : dvhe

  20. Codec ID/Info : High Efficiency Video Coding with Dolby Vision

  21. Duration : 2 h 28 min

  22. Bit rate : 13.8 Mb/s

  23. Width : 3 840 pixels

  24. Height : 1 640 pixels

  25. Display aspect ratio : 2.35:1

  26. Frame rate mode : Constant

  27. Frame rate : 24.000 FPS

  28. Color space : YUV

  29. Chroma subsampling : 4:2:0

  30. Bit depth : 10 bits

  31. Bits/(Pixel*Frame) : 0.091

  32. Stream size : 14.3 GiB (97%)

  33. Default : Yes

  34. Alternate group : 1

  35. Encoded date : UTC 2022-04-29 08:44:46

  36. Tagged date : UTC 2022-04-29 08:44:46

  37. Color range : Full

  38. Codec configuration box : hvcC+dvcC


  39. Audio #1

  40. ID : 2

  41. Format : E-AC-3

  42. Format/Info : Enhanced AC-3

  43. Commercial name : Dolby Digital Plus

  44. Codec ID : ac-3

  45. Duration : 2 h 28 min

  46. Bit rate mode : Constant

  47. Bit rate : 192 kb/s

  48. Channel(s) : 2 channels

  49. Channel layout : L R

  50. Sampling rate : 48.0 kHz

  51. Frame rate : 31.250 FPS (1536 SPF)

  52. Compression mode : Lossy

  53. Stream size : 205 MiB (1%)

  54. Language : Chinese

  55. Service kind : Complete Main

  56. Default : Yes

  57. Alternate group : 2

  58. Encoded date : UTC 2022-04-29 08:44:46

  59. Tagged date : UTC 2022-04-29 08:44:46


  60. Audio #2

  61. ID : 3

  62. Format : AAC LC

  63. Format/Info : Advanced Audio Codec Low Complexity

  64. Codec ID : mp4a-40-2

  65. Duration : 2 h 28 min

  66. Bit rate mode : Variable

  67. Bit rate : 253 kb/s

  68. Maximum bit rate : 258 kb/s

  69. Channel(s) : 2 channels

  70. Channel layout : L R

  71. Sampling rate : 48.0 kHz

  72. Frame rate : 46.875 FPS (1024 SPF)

  73. Compression mode : Lossy

  74. Stream size : 270 MiB (2%)

  75. Language : Chinese

  76. Default : No

  77. Alternate group : 2

  78. Encoded date : UTC 2022-04-29 08:44:46

  79. Tagged date : UTC 2022-04-29 08:44:46




复制代码



文件下载


除非特别注明,本文『长津湖之水门桥[杜比视界版本][国语配音/中文字幕].The.Battle.At.Lake.Changjin.II.2022.2160p.WEB-DL.H265.DV.DDP2.0-HDBWEB 14』来源于互联网机器人自动抓取,非本站原创。 浮游电影网不对本文拥有版权,如有侵犯,请联系邮箱:fuyouu#yandex.com[#换成@]投诉。我们会在15个工作日内删除。 但烦请转载时请标明出处:“本文转载于『浮游电影网』,原文地址:https://www.fuyouu.com/21798.html

评论吧骚年!

发表你的见解   

昵称*

E-mail*(建议输入,以便收到博主回复的提示邮件)

验证码*

您可以使用eMule或eMule Mod(Windows)、aMule(Win、Linux、Mac)等软件下载eD2k链接。。
eMule收藏集(.emulecollection)文件是您选中的所有链接的列表文件。eMule可以直接下载它们。
按住SHIFT键选择可以选中多个选择框。
可用文件名和大小选择器来选择文件。
文件名选择器帮您根据文件名称或后缀来选择文件。不分大小写。
符号使用:
和:空格( )、+
不包含:-
或:|
转义:一对英文引号("");
匹配开头:^
匹配结尾:$
例如:
选中所有名称中包含有“eMule”或“0.49c”字眼,但不包含有“exe”字眼的:emule|0.49c -exe
选中所有名称的开头是“eMule”,结尾是“0.49c”的:^emule 0.49c$
选中所有名称中带有“eMule 0.49c”的(必须是“eMule 0.49c”,中间没有别的字符,不能是“eMule fake 0.49c”),需要转义:"emule 0.49c"
大小选择器帮您根据文件大小选择文件。