当前位置: 首页 >> 港台电影 >> 杀破狼[共3部合集][国粤英多音轨/繁英字幕].SPL.Trilogy.2005-2017.BluRay.1080p.2Audio.DTS-HD.MA.7.1.x265.10bit-ALT 33.05 >> 正文

杀破狼[共3部合集][国粤英多音轨/繁英字幕].SPL.Trilogy.2005-2017.BluRay.1080p.2Audio.DTS-HD.MA.7.1.x265.10bit-ALT 33.05

2022年04月30日 13:52:47     电影发布:来源于网络     电影分类:港台电影     评论(0)    

◎译 名 杀破狼 / SPL / Kill Zone / Saat po long

◎片 名 殺破狼

◎年 代 2005

◎产 地 中国香港 / 中国澳门

◎类 别 剧情 / 动作 / 犯罪

◎语 言 粤语

◎上映日期 2005-11-18(中国香港)

◎IMDb链接 https://www.imdb.com/title/tt0478024/

◎豆瓣评分 7.6/10 (130231人评价)

◎豆瓣链接 https://movie.douban.com/subject/1428602/

◎片 长 93分钟

◎导 演 叶伟信 Wilson Yip (id:1274472)

◎编 剧 司徒锦源 Kam-Yuen Szeto (id:1298766)

吴炜伦 Wai Lun Ng (id:1275435)

叶伟信 Wilson Yip (id:1274472)

◎演 员 甄子丹 Donnie Yen (id:1025194)

洪金宝 Sammo Hung Kam-Bo (id:1055887)

任达华 Simon Yam (id:1031194)

廖启智 Kai Chi Liu (id:1274268)

吴京 Jing Wu (id:1000525)

洪天明 Timmy Hung Tin-Ming (id:1314773)

张智尧 Kennth Chang (id:1274768)

夏韶声 Danny Summer (id:1315997)

施祖男 Vincent Sze (id:1041979)

陈达志 Tat Chi Chan (id:1443399)

谷垣健治 Kenji Tanigaki (id:1335515)

金浚汶 Jeff Kam (id:1388101)

景珂 Jingke Liang (id:1312753)

惠天赐 Austin Wai (id:1312867)

黄柏高 Paco Wong Pak Go (id:1343341)

陈达志 Tat Chi Chan (id:1443399)

陈光荣 Kwong Wing Chan (id:1019903)

林华全 Wah-Chuen Lam (id:1289305)

张嘉辉 Ka-fai Cheung (id:1280620)

麦国强 Kenneth Mak (id:1290782)

曾伯铨 Steven Tsang (id:1310849)

许安 Koan Hui (id:1287130)

黄智亨 Henri Wong Chi-Hang (id:1322383)

甄子丹 Donnie Yen (id:1025194)

曾景祥 Kinson Tsang (id:1299575)

◎简 介

刘国忠(任达华 饰)是一个身患绝症的警察,他的前途暗淡无光,他接到任务要保护一个证人的女儿。督察马军(甄子丹 饰)是身手了得的武术家,一心要接替忠的位置。忠派去黑道大哥宝爷(洪金宝 饰)身边的卧底意外死亡,原因不明,忠怀疑是宝爷所为。于是把宝爷押送到警局盘问,苦于没有证 据,忠迫不得已开始捏造证据控告宝爷,全警局都深谙此道,只有军蒙在鼓里。

然而,证据神秘消失,宝爷走出警局时,扬言要杀掉忠的所有手下,果然他身边的冷血杀手Jack(吴京 饰)干掉了忠一帮下属,马军意外发现,忠的下属和宝爷之间原来还另有恩怨,马军怒火中烧,决定与宝爷和Jack决一死战。

◎获奖情况 (共2项)

第25届香港电影金像奖 (2006)

最佳男配角(提名)

└──廖启智 (id:1274268)

最佳动作设计

└──甄子丹 (id:1025194)

  1. 合集文件列表:

  2. 1.Paradox.2017.BluRay.1080p.2Audio.TrueHD.5.1.x265.10bit-ALT.mkv 11.10GB

  3. 2.SPL.2.A.Time.For.Consequences.2015.BluRay.1080p.2Audio.DTS-HD.MA.7.1.x265.10bit-ALT.mkv 11.29GB

  4. 3.SPL.2005.BluRay.1080p.2Audio.DTS-HD.MA.5.1.x265.10bit-ALT.mkv 10.66GB


复制代码

  1. ##### MediaInfo ######

  2. General

  3. Unique ID : 40716105085438021301998964174262983074 (0x1EA1A2F83C821153133D5D6D7FFD59A2)

  4. Complete name : Paradox.2017.BluRay.1080p.2Audio.TrueHD.5.1.x265.10bit-ALT.mkv

  5. Format : Matroska

  6. Format version : Version 4

  7. File size : 11.1 GiB

  8. Duration : 1 h 39 min

  9. Overall bit rate mode : Variable

  10. Overall bit rate : 15.9 Mb/s

  11. Encoded date : UTC 2020-04-22 08:07:47

  12. Writing application : mkvmerge v45.0.0 ('Heaven in Pennies') 64-bit

  13. Writing library : libebml v1.3.10 + libmatroska v1.5.2


  14. Video

  15. ID : 1

  16. Format : HEVC

  17. Format/Info : High Efficiency Video Coding

  18. Format profile : Main [email protected]@High

  19. Codec ID : V_MPEGH/ISO/HEVC

  20. Duration : 1 h 39 min

  21. Bit rate : 9 042 kb/s

  22. Width : 1 920 pixels

  23. Height : 816 pixels

  24. Display aspect ratio : 2.35:1

  25. Frame rate mode : Constant

  26. Frame rate : 24.000 FPS

  27. Color space : YUV

  28. Chroma subsampling : 4:2:0

  29. Bit depth : 10 bits

  30. Bits/(Pixel*Frame) : 0.240

  31. Stream size : 6.29 GiB (57%)

  32. Title : HEVC, [email protected]@High, 24 fps @ 9042 kbps

  33. Writing library : x265 3.3+1-g396395b2b:[Windows][GCC 9.2.0][64 bit] 10bit

  34. Encoding settings : cpuid=533541111039 / frame-threads=5 / numa-pools=44,44 / wpp / pmode / pme / no-psnr / no-ssim / log-level=2 / input-csp=1 / input-res=1920x816 / interlace=0 / total-frames=143504 / level-idc=51 / high-tier=1 / uhd-bd=0 / ref=5 / no-allow-non-conformance / no-repeat-headers / annexb / no-aud / no-hrd / info / hash=0 / no-temporal-layers / open-gop / min-keyint=24 / keyint=240 / gop-lookahead=0 / bframes=6 / b-adapt=2 / b-pyramid / bframe-bias=0 / rc-lookahead=40 / lookahead-slices=0 / NTMzNTQ=uuDQuD2mJt9fsCf / scenecut=40 / hist-scenecut=0 / radl=0 / no-splice / no-intra-refresh / ctu=32 / min-cu-size=8 / no-rect / no-amp / max-tu-size=32 / tu-inter-depth=3 / tu-intra-depth=3 / limit-tu=4 / rdoq-level=2 / dynamic-rd=0.00 / no-ssim-rd / signhide / no-tskip / nr-intra=0 / nr-inter=0 / no-constrained-intra / no-strong-intra-smoothing / max-merge=4 / limit-refs=1 / limit-modes / me=3 / subme=4 / merange=25 / temporal-mvp / no-frame-dup / no-hme / weightp / weightb / no-analyze-src-pics / deblock=-3:-3 / no-sao / no-sao-non-deblock / rd=6 / selective-sao=0 / no-early-skip / rskip / no-fast-intra / no-tskip-fast / no-cu-lossless / b-intra / no-splitrd-skip / rdpenalty=0 / psy-rd=2.00 / psy-rdoq=1.00 / no-rd-refine / no-lossless / cbqpoffs=0 / crqpoffs=0 / rc=crf / crf=17.0 / qcomp=0.65 / qpstep=4 / stats-write=0 / stats-read=0 / vbv-maxrate=80000 / vbv-bufsize=80000 / vbv-init=0.9 / crf-max=0.0 / crf-min=0.0 / ipratio=1.40 / pbratio=1.30 / aq-mode=2 / aq-strength=0.85 / cutree / zone-count=0 / no-strict-cbr / qg-size=32 / no-rc-grain / qpmax=69 / qpmin=0 / no-const-vbv / sar=1 / overscan=0 / videoformat=5 / range=0 / colorprim=1 / transfer=1 / colormatrix=1 / chromaloc=0 / display-window=0 / cll=0,0 / min-luma=0 / max-luma=1023 / log2-max-poc-lsb=8 / vui-timing-info / vui-hrd-info / slices=1 / no-opt-qp-pps / no-opt-ref-list-length-pps / no-multi-pass-opt-rps / scenecut-bias=0.05 / hist-threshold=0.01 / no-opt-cu-delta-qp / no-aq-motion / no-hdr10 / no-hdr10-opt / no-dhdr10-opt / no-idr-recovery-sei / analysis-reuse-level=0 / analysis-save-reuse-level=0 / analysis-load-reuse-level=0 / scale-factor=0 / refine-intra=0 / refine-inter=0 / refine-mv=1 / refine-ctu-distortion=0 / no-limit-sao / ctu-info=0 / no-lowpass-dct / refine-analysis-type=0 / copy-pic=1 / max-ausize-factor=1.0 / no-dynamic-refine / no-single-sei / no-hevc-aq / no-svt / no-field / qp-adaptation-range=1.00 / no-scenecut-aware-qpconformance-window-offsets / right=0 / bottom=0 / NTMzNTQ=

  35. Language : English

  36. Default : Yes

  37. Forced : No

  38. Color range : Limited

  39. Color primaries : BT.709

  40. Transfer characteristics : BT.709

  41. Matrix coefficients : BT.709


  42. Audio #1

  43. ID : 2

  44. Format : MLP FBA

  45. Format/Info : Meridian Lossless Packing FBA

  46. Commercial name : Dolby TrueHD

  47. Codec ID : A_TRUEHD

  48. Duration : 1 h 39 min

  49. Bit rate mode : Variable

  50. Bit rate : 2 733 kb/s

  51. Maximum bit rate : 4 764 kb/s

  52. Channel(s) : 6 channels

  53. Channel layout : L R C LFE Ls Rs

  54. Sampling rate : 96.0 kHz

  55. Frame rate : 1 200.000 FPS (80 SPF)

  56. Compression mode : Lossless

  57. Delay relative to video : 2 s 0 ms

  58. Stream size : 1.90 GiB (17%)

  59. Title : Cantonese Dolby TrueHD Audio 5.1 @ 3373 kbps

  60. Language : Chinese

  61. Default : Yes

  62. Forced : No


  63. Audio #2

  64. ID : 3

  65. Format : AC-3

  66. Format/Info : Audio Coding 3

  67. Commercial name : Dolby Digital

  68. Codec ID : A_AC3

  69. Duration : 1 h 39 min

  70. Bit rate mode : Constant

  71. Bit rate : 640 kb/s

  72. Channel(s) : 6 channels

  73. Channel layout : L R C LFE Ls Rs

  74. Sampling rate : 48.0 kHz

  75. Frame rate : 31.250 FPS (1536 SPF)

  76. Compression mode : Lossy

  77. Delay relative to video : 2 s 0 ms

  78. Stream size : 456 MiB (4%)

  79. Title : Cantonese Dolby Digital Audio 5.1 @ 640 kbps

  80. Language : Chinese

  81. Service kind : Complete Main

  82. Default : No

  83. Forced : No


  84. Audio #3

  85. ID : 4

  86. Format : MLP FBA

  87. Format/Info : Meridian Lossless Packing FBA

  88. Commercial name : Dolby TrueHD

  89. Codec ID : A_TRUEHD

  90. Duration : 1 h 39 min

  91. Bit rate mode : Variable

  92. Bit rate : 2 730 kb/s

  93. Maximum bit rate : 4 764 kb/s

  94. Channel(s) : 6 channels

  95. Channel layout : L R C LFE Ls Rs

  96. Sampling rate : 96.0 kHz

  97. Frame rate : 1 200.000 FPS (80 SPF)

  98. Compression mode : Lossless

  99. Delay relative to video : 2 s 0 ms

  100. Stream size : 1.90 GiB (17%)

  101. Title : Mandarin Dolby TrueHD Audio 5.1 @ 3370 kbps

  102. Language : Chinese

  103. Default : No

  104. Forced : No


  105. Audio #4

  106. ID : 5

  107. Format : AC-3

  108. Format/Info : Audio Coding 3

  109. Commercial name : Dolby Digital

  110. Codec ID : A_AC3

  111. Duration : 1 h 39 min

  112. Bit rate mode : Constant

  113. Bit rate : 640 kb/s

  114. Channel(s) : 6 channels

  115. Channel layout : L R C LFE Ls Rs

  116. Sampling rate : 48.0 kHz

  117. Frame rate : 31.250 FPS (1536 SPF)

  118. Compression mode : Lossy

  119. Delay relative to video : 2 s 0 ms

  120. Stream size : 456 MiB (4%)

  121. Title : Mandarin Dolby Digital Audio 5.1 @ 640 kbps

  122. Language : Chinese

  123. Service kind : Complete Main

  124. Default : No

  125. Forced : No


  126. Text #1

  127. ID : 6

  128. Format : PGS

  129. Codec ID : S_HDMV/PGS

  130. Codec ID/Info : Picture based subtitle format used on BDs/HD-DVDs

  131. Duration : 1 h 33 min

  132. Bit rate : 13.3 kb/s

  133. Count of elements : 1308

  134. Stream size : 8.87 MiB (0%)

  135. Title : Cht/SUP 原盘繁体

  136. Language : Chinese

  137. Default : Yes

  138. Forced : No


  139. Text #2

  140. ID : 7

  141. Format : PGS

  142. Codec ID : S_HDMV/PGS

  143. Codec ID/Info : Picture based subtitle format used on BDs/HD-DVDs

  144. Duration : 1 h 33 min

  145. Bit rate : 13.2 kb/s

  146. Count of elements : 1308

  147. Stream size : 8.83 MiB (0%)

  148. Title : Eng/SUP

  149. Language : English

  150. Default : No

  151. Forced : No


  152. Menu

  153. 00:00:00.000 : en:第 01 章

  154. 00:05:33.792 : en:第 02 章

  155. 00:08:15.833 : en:第 03 章

  156. 00:15:38.125 : en:第 04 章

  157. 00:21:02.625 : en:第 05 章

  158. 00:26:10.583 : en:第 06 章

  159. 00:31:39.500 : en:第 07 章

  160. 00:34:52.667 : en:第 08 章

  161. 00:39:21.458 : en:第 09 章

  162. 00:42:39.708 : en:第 10 章

  163. 00:49:57.542 : en:第 11 章

  164. 00:57:54.667 : en:第 12 章

  165. 01:01:49.042 : en:第 13 章

  166. 01:05:26.417 : en:第 14 章

  167. 01:07:53.583 : en:第 15 章

  168. 01:16:10.250 : en:第 16 章

  169. 01:21:17.417 : en:第 17 章

  170. 01:25:44.417 : en:第 18 章

  171. 01:30:39.042 : en:第 19 章

  172. 01:36:37.208 : en:第 20 章




复制代码



文件下载


除非特别注明,本文『杀破狼[共3部合集][国粤英多音轨/繁英字幕].SPL.Trilogy.2005-2017.BluRay.1080p.2Audio.DTS-HD.MA.7.1.x265.10bit-ALT 33.05』来源于互联网机器人自动抓取,非本站原创。 浮游电影网不对本文拥有版权,如有侵犯,请联系邮箱:fuyouu#yandex.com[#换成@]投诉。我们会在15个工作日内删除。 但烦请转载时请标明出处:“本文转载于『浮游电影网』,原文地址:https://www.fuyouu.com/21797.html

评论吧骚年!

发表你的见解   

昵称*

E-mail*(建议输入,以便收到博主回复的提示邮件)

验证码*

您可以使用eMule或eMule Mod(Windows)、aMule(Win、Linux、Mac)等软件下载eD2k链接。。
eMule收藏集(.emulecollection)文件是您选中的所有链接的列表文件。eMule可以直接下载它们。
按住SHIFT键选择可以选中多个选择框。
可用文件名和大小选择器来选择文件。
文件名选择器帮您根据文件名称或后缀来选择文件。不分大小写。
符号使用:
和:空格( )、+
不包含:-
或:|
转义:一对英文引号("");
匹配开头:^
匹配结尾:$
例如:
选中所有名称中包含有“eMule”或“0.49c”字眼,但不包含有“exe”字眼的:emule|0.49c -exe
选中所有名称的开头是“eMule”,结尾是“0.49c”的:^emule 0.49c$
选中所有名称中带有“eMule 0.49c”的(必须是“eMule 0.49c”,中间没有别的字符,不能是“eMule fake 0.49c”),需要转义:"emule 0.49c"
大小选择器帮您根据文件大小选择文件。