当前位置: 首页 >> 欧美电影 >> 异种[共4部合集][繁英字幕].Species.1995-2007.BluRay.1080p.DTS-HD.MA5.1.x265.10bit-ALT 45.72GB >> 正文

异种[共4部合集][繁英字幕].Species.1995-2007.BluRay.1080p.DTS-HD.MA5.1.x265.10bit-ALT 45.72GB

2022年04月30日 13:49:56     电影发布:来源于网络     电影分类:欧美电影     评论(0)    

◎译 名 异种

◎片 名 Species

◎年 代 1995

◎产 地 美国

◎类 别 动作 / 科幻 / 恐怖

◎语 言 英语

◎上映日期 1995-07-07(美国)

◎IMDb链接 https://www.imdb.com/title/tt0114508/

◎豆瓣评分 6.4/10 (17137人评价)

◎豆瓣链接 https://movie.douban.com/subject/1293442/

◎片 长 108 分钟

◎导 演 罗杰·唐纳森 Roger Donaldson (id:1040805)

◎编 剧 丹尼斯·费尔德曼 Dennis Feldman (id:1433863)

◎演 员 本·金斯利 Ben Kingsley (id:1054393)

迈克尔·马德森 Michael Madsen (id:1027816)

阿尔弗雷德·莫里纳 Alfred Molina (id:1017897)

福里斯特·惠特克 Forest Whitaker (id:1053567)

玛格·海根柏格 Marg Helgenberger (id:1040559)

娜塔莎·亨斯屈奇 Natasha Henstridge (id:1022642)

米歇尔·威廉姆斯 Michelle Williams (id:1049491)

乔丹·朗德 Jordan Lund (id:1118207)

大卫·詹森 David Jensen (id:1110169)

伊斯特·斯高特 Esther Scott (id:1363169)

威廉·尤泰 William Utay (id:1157257)

赫塔威尔 Herta Ware (id:1161235)

威廉姆·鲍姆利尔 William Bumiller (id:1072591)

卡洛琳·巴克利 Caroline Barclay (id:1448032)

马修·阿什福德 Matthew Ashford (id:1005095)

安东尼·吉德拉 Anthony Guidera (id:1285611)

Sara Lise Sara Lise (id:1108652)

维普哈布莱 Whip Hubley (id:1097633)

帕特里夏·贝尔彻 Patricia Belcher (id:1331643)

理查德·凡西 Richard Fancy (id:1079313)

爱德·斯通 Ed Stone (id:1442953)

丹德里·泰勒 Dendrie Taylor (id:1313136)

达娜·喜 Dana Hee (id:1041461)

弗兰克·维尔克 Frank Welker (id:1031825)

安德泽·巴特科维卡 Andrzej Bartkowiak (id:1276546)

Jellybean Benítez Jellybean Benítez (id:1042196)

Jimmy Chunga Jimmy Chunga (id:1185589)

罗杰·唐纳森 Roger Donaldson (id:1040805)

James Ent James Ent (id:1082390)

扎克·克努森 Zak Knutson (id:1224772)

Coati Mundi Coati Mundi (id:1016832)

Peter Wick Peter Wick (id:1164160)

克里斯托弗·杨 Christopher Young (id:1048309)

安德泽·巴特科维卡 Andrzej Bartkowiak (id:1276546)

康拉德·巴夫四世 Conrad Buff IV (id:1279581)

凯茜·桑德里奇 Cathy Sandrich (id:1296638)

Amanda Mackey Johnson Amanda Mackey Johnson (id:1290650)

丹·韦伯斯特 Dan Webster (id:1300570)

乔·汤普金斯 Joe I. Tompkins (id:1299373)

Nina Paskowitz Nina Paskowitz (id:1294045)

Kenny Myers Kenny Myers (id:1292824)

史蒂夫·约翰逊 Steve Johnson (id:1287818)

Tracey Levy Tracey Levy (id:1289926)

戴维·沃马克 David Womark (id:1276397)

Suzie Pelissier Suzie Pelissier (id:1294221)

李·奥尔洛夫 Lee Orloff (id:1293624)

Ellen Somers Ellen Somers (id:1298051)

David A. Smith David A. Smith (id:1297867)

朗·西蒙森 Ron Simonson (id:1297652)

Olivier Sarda Olivier Sarda (id:1296696)

Ray Moore Ray Moore (id:1292427)

米歇尔·莫恩 Michele Moen (id:1292270)

Meher Gourjian Meher Gourjian (id:1285244)

卡林·乔伊 Karin Joy (id:1287945)

雅克·斯特罗维斯 Jacques Stroweis (id:1298561)

David Jones David Jones (id:1287862)

吉姆·瑞吉尔 Jim Rygiel (id:1296402)

戴尔·拜尔 Dale Baer (id:1277675)

克里斯托尔·道德 Crystal Dowd (id:1282662)

马可·伍斯特 Marco Wuest (id:1409520)

◎简 介

自20世纪70年代开始,美国政府实施了名为SETI的计划,30年来不间断的用射电望远镜扫描宇宙空间,旨在寻找外星生物和相关文明。在犹他州的德威市,有一所隶属政府的实验室,这里正在进行一项秘密试验。在此之前,人类曾受到外星文明发回的信息,其中包括外星生物的DNA组成和生命重组的方法。犹他州实验室的科学家们利用外星人提供的资料培养出拥有外星人DNA的新人类“塞尔”。出于某种原因,政府决定中止这项实验,但其中一个塞尔却逃出实验室。她将给人类带来怎样的影响?

本片荣获1996年MTV电影奖最佳银幕之吻奖、1995年科环宇宙杂志最佳化妆奖、1995年Sitges-Catalonian国际电影节最佳特效奖。

  1. 合集文件列表:

  2. 1.Species.1995.BluRay.1080p.DTS-HD.MA5.1.x265.10bit-ALT.mkv 9.27GB

  3. 2.Species.II.1998.BluRay.1080p.DTS-HD.MA5.1.x265.10bit-ALT.mkv 9.49GB

  4. 3.Species.III.2004.BluRay.1080p.DTS-HD.MA5.1.x265.10bit-ALT.mkv 15.03GB

  5. 4.Species.The.Awakening.2007.BluRay.1080p.DTS-HD.MA5.1.x265.10bit-ALT.mkv 11.92GB


复制代码

  1. ##### MediaInfo ######

  2. General

  3. Unique ID : 155947627302666532045919228279004727557 (0x75526BA70E8AF70636C7317E38A60905)

  4. Complete name : Species.1995.BluRay.1080p.DTS-HD.MA5.1.x265.10bit-ALT.mkv

  5. Format : Matroska

  6. Format version : Version 4

  7. File size : 9.27 GiB

  8. Duration : 1 h 48 min

  9. Overall bit rate mode : Variable

  10. Overall bit rate : 12.2 Mb/s

  11. Encoded date : UTC 2020-09-29 00:25:08

  12. Writing application : mkvmerge v50.0.0 ('Awakenings') 64-bit

  13. Writing library : libebml v1.4.0 + libmatroska v1.6.2


  14. Video

  15. ID : 1

  16. Format : HEVC

  17. Format/Info : High Efficiency Video Coding

  18. Format profile : Main [email protected]@High

  19. Codec ID : V_MPEGH/ISO/HEVC

  20. Duration : 1 h 48 min

  21. Bit rate : 9 976 kb/s

  22. Width : 1 920 pixels

  23. Height : 820 pixels

  24. Display aspect ratio : 2.35:1

  25. Frame rate mode : Constant

  26. Frame rate : 23.976 (24000/1001/53354) FPS

  27. Color space : YUV

  28. Chroma subsampling : 4:2:0

  29. Bit depth : 10 bits

  30. Bits/(Pixel*Frame) : 0.264

  31. Stream size : 7.56 GiB (82%)

  32. Title : HEVC, [email protected]@High, 24/1.001 fps @ 9976 kbps

  33. Writing library : x265 3.3+1-g396395b2b:[Windows][GCC 9.2.0][64 bit] 10bit

  34. Encoding settings : cpuid=533541111039 / frame-threads=4 / numa-pools=16 / wpp / pmode / pme / no-psnr / no-ssim / log-level=2 / input-csp=1 / input-res=1920x820 / interlace=0 / total-frames=155999 / level-idc=51 / high-tier=1 / uhd-bd=0 / ref=5 / no-allow-non-conformance / no-repeat-headers / annexb / no-aud / no-hrd / info / hash=0 / no-temporal-layers / open-gop / min-keyint=24 / keyint=240 / gop-lookahead=0 / bframes=6 / b-adapt=2 / b-pyramid / bframe-bias=0 / rc-lookahead=40 / lookahead-slices=0 / NTMzNTQ=uuDQuD2mJt9fsCf / scenecut=40 / hist-scenecut=0 / radl=0 / no-splice / no-intra-refresh / ctu=32 / min-cu-size=8 / no-rect / no-amp / max-tu-size=32 / tu-inter-depth=3 / tu-intra-depth=3 / limit-tu=4 / rdoq-level=2 / dynamic-rd=0.00 / no-ssim-rd / signhide / no-tskip / nr-intra=0 / nr-inter=0 / no-constrained-intra / no-strong-intra-smoothing / max-merge=4 / limit-refs=1 / limit-modes / me=3 / subme=4 / merange=25 / temporal-mvp / no-frame-dup / no-hme / weightp / weightb / no-analyze-src-pics / deblock=-3:-3 / no-sao / no-sao-non-deblock / rd=6 / selective-sao=0 / no-early-skip / rskip / no-fast-intra / no-tskip-fast / no-cu-lossless / b-intra / no-splitrd-skip / rdpenalty=0 / psy-rd=2.00 / psy-rdoq=1.00 / no-rd-refine / no-lossless / cbqpoffs=0 / crqpoffs=0 / rc=crf / crf=18.5 / qcomp=0.65 / qpstep=4 / stats-write=0 / stats-read=0 / vbv-maxrate=80000 / vbv-bufsize=80000 / vbv-init=0.9 / crf-max=0.0 / crf-min=0.0 / ipratio=1.40 / pbratio=1.30 / aq-mode=2 / aq-strength=0.85 / cutree / zone-count=0 / no-strict-cbr / qg-size=32 / no-rc-grain / qpmax=69 / qpmin=0 / no-const-vbv / sar=1 / overscan=0 / videoformat=5 / range=0 / colorprim=1 / transfer=1 / colormatrix=1 / chromaloc=0 / display-window=0 / cll=0,0 / min-luma=0 / max-luma=1023 / log2-max-poc-lsb=8 / vui-timing-info / vui-hrd-info / slices=1 / no-opt-qp-pps / no-opt-ref-list-length-pps / no-multi-pass-opt-rps / scenecut-bias=0.05 / hist-threshold=0.01 / no-opt-cu-delta-qp / no-aq-motion / no-hdr10 / no-hdr10-opt / no-dhdr10-opt / no-idr-recovery-sei / analysis-reuse-level=0 / analysis-save-reuse-level=0 / analysis-load-reuse-level=0 / scale-factor=0 / refine-intra=0 / refine-inter=0 / refine-mv=1 / refine-ctu-distortion=0 / no-limit-sao / ctu-info=0 / no-lowpass-dct / refine-analysis-type=0 / copy-pic=1 / max-ausize-factor=1.0 / no-dynamic-refine / no-single-sei / no-hevc-aq / no-svt / no-field / qp-adaptation-range=1.00 / no-scenecut-aware-qpconformance-window-offsets / right=0 / bottom=0 / NTMzNTQ=

  35. Language : English

  36. Default : Yes

  37. Forced : No

  38. Color range : Limited

  39. Color primaries : BT.709

  40. Transfer characteristics : BT.709

  41. Matrix coefficients : BT.709


  42. Audio

  43. ID : 2

  44. Format : DTS XLL

  45. Format/Info : Digital Theater Systems

  46. Commercial name : DTS-HD Master Audio

  47. Codec ID : A_DTS

  48. Duration : 1 h 48 min

  49. Bit rate mode : Variable

  50. Bit rate : 2 155 kb/s

  51. Channel(s) : 6 channels

  52. Channel layout : C L R Ls Rs LFE

  53. Sampling rate : 48.0 kHz

  54. Frame rate : 93.750 FPS (512 SPF)

  55. Bit depth : 16 bits

  56. Compression mode : Lossless

  57. Stream size : 1.63 GiB (18%)

  58. Title : English DTS-HD Master Audio 5.1 @ 2156 kbps

  59. Language : English

  60. Default : Yes

  61. Forced : No


  62. Text #1

  63. ID : 3

  64. Format : PGS

  65. Codec ID : S_HDMV/PGS

  66. Codec ID/Info : Picture based subtitle format used on BDs/HD-DVDs

  67. Duration : 1 h 37 min

  68. Bit rate : 37.0 kb/s

  69. Count of elements : 1796

  70. Stream size : 25.8 MiB (0%)

  71. Title : Eng/SUP

  72. Language : English

  73. Default : No

  74. Forced : No


  75. Text #2

  76. ID : 4

  77. Format : PGS

  78. Codec ID : S_HDMV/PGS

  79. Codec ID/Info : Picture based subtitle format used on BDs/HD-DVDs

  80. Duration : 1 h 43 min

  81. Bit rate : 47.4 kb/s

  82. Count of elements : 2536

  83. Stream size : 35.0 MiB (0%)

  84. Title : Eng/SUP SDH

  85. Language : English

  86. Default : No

  87. Forced : No


  88. Text #3

  89. ID : 5

  90. Format : PGS

  91. Codec ID : S_HDMV/PGS

  92. Codec ID/Info : Picture based subtitle format used on BDs/HD-DVDs

  93. Duration : 1 h 39 min

  94. Bit rate : 30.0 kb/s

  95. Count of elements : 1822

  96. Stream size : 21.3 MiB (0%)

  97. Title : Cht/SUP 原盘繁体

  98. Language : Chinese

  99. Default : Yes

  100. Forced : No


  101. Menu

  102. 00:00:00.000 : en:第 01 章

  103. 00:03:23.036 : en:第 02 章

  104. 00:12:06.684 : en:第 03 章

  105. 00:18:39.535 : en:第 04 章

  106. 00:24:06.487 : en:第 05 章

  107. 00:31:02.736 : en:第 06 章

  108. 00:36:30.522 : en:第 07 章

  109. 00:47:54.872 : en:第 08 章

  110. 00:54:05.075 : en:第 09 章

  111. 01:00:12.192 : en:第 10 章

  112. 01:06:39.412 : en:第 11 章

  113. 01:12:57.582 : en:第 12 章

  114. 01:17:50.124 : en:第 13 章

  115. 01:24:45.080 : en:第 14 章

  116. 01:29:31.866 : en:第 15 章

  117. 01:35:12.624 : en:第 16 章




复制代码



文件下载


除非特别注明,本文『异种[共4部合集][繁英字幕].Species.1995-2007.BluRay.1080p.DTS-HD.MA5.1.x265.10bit-ALT 45.72GB』来源于互联网机器人自动抓取,非本站原创。 浮游电影网不对本文拥有版权,如有侵犯,请联系邮箱:fuyouu#yandex.com[#换成@]投诉。我们会在15个工作日内删除。 但烦请转载时请标明出处:“本文转载于『浮游电影网』,原文地址:https://www.fuyouu.com/21794.html

评论吧骚年!

发表你的见解   

昵称*

E-mail*(建议输入,以便收到博主回复的提示邮件)

验证码*

您可以使用eMule或eMule Mod(Windows)、aMule(Win、Linux、Mac)等软件下载eD2k链接。。
eMule收藏集(.emulecollection)文件是您选中的所有链接的列表文件。eMule可以直接下载它们。
按住SHIFT键选择可以选中多个选择框。
可用文件名和大小选择器来选择文件。
文件名选择器帮您根据文件名称或后缀来选择文件。不分大小写。
符号使用:
和:空格( )、+
不包含:-
或:|
转义:一对英文引号("");
匹配开头:^
匹配结尾:$
例如:
选中所有名称中包含有“eMule”或“0.49c”字眼,但不包含有“exe”字眼的:emule|0.49c -exe
选中所有名称的开头是“eMule”,结尾是“0.49c”的:^emule 0.49c$
选中所有名称中带有“eMule 0.49c”的(必须是“eMule 0.49c”,中间没有别的字符,不能是“eMule fake 0.49c”),需要转义:"emule 0.49c"
大小选择器帮您根据文件大小选择文件。