当前位置: 首页 >> 欧美电影 >> 月球陨落[杜比视界版本][中英特效字幕].Moonfall.2022.UHD.BluRay.2160p.x265.10bit.DoVi-MiniHD 25.82GB >> 正文

月球陨落[杜比视界版本][中英特效字幕].Moonfall.2022.UHD.BluRay.2160p.x265.10bit.DoVi-MiniHD 25.82GB

2022年04月30日 13:45:09     电影发布:来源于网络     电影分类:欧美电影     评论(0)    

◎译 名 月球陨落 / 月球坠落

◎片 名 Moonfall

◎年 代 2022

◎产 地 美国 / 中国大陆 / 英国

◎类 别 科幻 / 灾难

◎语 言 英语 / 汉语普通话

◎上映日期 2022-03-25(中国大陆) / 2022-02-04(美国)

◎IMDb链接 https://www.imdb.com/title/tt5834426/

◎豆瓣评分 5.4/10 (69961人评价)

◎豆瓣链接 https://movie.douban.com/subject/26825482/

◎片 长 130分钟

◎导 演 罗兰·艾默里奇 Roland Emmerich (id:1040593)

◎编 剧 罗兰·艾默里奇 Roland Emmerich (id:1040593)

哈洛德·克卢瑟 Harald Kloser (id:1009834)

斯宾塞·科恩 Spenser Cohen (id:1397103)

◎演 员 哈莉·贝瑞 Halle Berry (id:1054415)

帕特里克·威尔森 Patrick Wilson (id:1006919)

约翰·布莱德利 John Bradley (id:1314665)

于文文 Kelly Yu (id:1342252)

迈克尔·佩纳 Michael Pe?a (id:1131634)

唐纳德·萨瑟兰 Donald Sutherland (id:1010556)

查理·普拉默 Charlie Plummer (id:1350090)

艾米·伊库瓦克 Eme Ikwuakor (id:1467718)

卡罗林纳·巴特察克 Carolina Bartczak (id:1332869)

马克西姆·罗伊 Maxim Roy (id:1139679)

斯蒂夫·博加尔特 Stephen Bogaert (id:1350047)

蒂龙·本斯金 Tyrone Benskin (id:1389182)

乔什·克鲁达斯 Josh Cruddas (id:1442635)

凯蒂·布赖尔 Katy Breier (id:1444407)

克里斯·桑迪福德 Chris Sandiford (id:1239842)

兰迪·托马斯 Randy Thomas (id:1149651)

克里什陶·马尔尚 Krista Marchand (id:1452439)

泰勒·艾略特·伯克 Tyler Elliot Burke (id:1335425)

娜塔莉·希波蒂 Nathaly Thibault (id:1345419)

贾·史密斯-约翰逊 Jaa Smith-Johnson (id:1335589)

史蒂文·皮奥维森 Steven Piovesan (id:1348738)

大卫·泰勒 David Tyler (id:1243183)

罗兰·艾默里奇 Roland Emmerich (id:1040593)

王中军 Zhongjun Wang (id:1276036)

王中磊 Zhonglei Wang (id:1276037)

马里奥·达维尼翁 Mario Davignon (id:1281890)

费利克斯·安托万·杜瓦尔 Félix-Antoine Duval (id:1465038)

◎简 介

月球开始偏离轨道,离撞上地球的时间线越来越近,危机时刻,美国国防部提出使用核弹,来让月球重新回到正常轨道。但“假冒博士”(约翰·布莱德利饰)发现,月球内部是空的,显然是有外星文明在操控着月球的轨迹。这个计划逐渐被两位宇航员(帕特里克·威尔森和哈莉·贝瑞饰)接受,但前者因为多年前的一起太空事故,已被美国国家航空航天局开除,关键时刻,已经升为负责人的后者拍板,决定用一台被废弃在博物馆中的航天飞船再次升空飞往月球,借助前者超强的驾驶经验,深入月球地心完成任务。

  1. ##### MediaInfo ######

  2. General

  3. Unique ID : 155978786316746578686461188600734537995 (0x75586BE91B0C3F0FAA637283FE75D90B)

  4. Complete name : Moonfall.2022.UHD.BluRay.2160p.x265.10bit.DoVi-MiniHD.mkv

  5. Format : Matroska

  6. Format version : Version 4

  7. File size : 25.8 GiB

  8. Duration : 2 h 10 min

  9. Overall bit rate mode : Variable

  10. Overall bit rate : 28.4 Mb/s

  11. Encoded date : UTC 2022-04-28 13:10:02

  12. Writing application : mkvmerge v66.0.0 ('Josie') 64-bit

  13. Writing library : libebml v1.4.2 + libmatroska v1.6.4


  14. Video

  15. ID : 1

  16. Format : HEVC

  17. Format/Info : High Efficiency Video Coding

  18. Format profile : Main [email protected]@High

  19. HDR format : SMPTE ST 2086, HDR10 compatible

  20. Codec ID : V_MPEGH/ISO/HEVC

  21. Duration : 2 h 10 min

  22. Bit rate : 23.4 Mb/s

  23. Width : 3 840 pixels

  24. Height : 2 160 pixels

  25. Display aspect ratio : 16:9

  26. Frame rate mode : Constant

  27. Frame rate : 23.976 (24000/1001/53354) FPS

  28. Color space : YUV

  29. Chroma subsampling : 4:2:0

  30. Bit depth : 10 bits

  31. Bits/(Pixel*Frame) : 0.118

  32. Stream size : 21.3 GiB (82%)

  33. Writing library : x265 3.3+3-g8f8e332f1+29:[Windows][#Erg`Djh#][@Yuuki] made by @Dongfangbubai

  34. Encoding settings : rc=crf / crf=18.0000 / qcomp=0.70 / qpstep=4 / stats-write=0 / stats-read=0 / vbv-maxrate=160000 / vbv-bufsize=160000 / vbv-init=0.9 / crf-max=0.0 / crf-min=0.0 / no-lossless / no-cu-lossless / aq-mode=3 / aq-strength=0.80 / cbqpoffs=-3 / crqpoffs=-3 / ipratio=1.40 / pbratio=1.30 / psy-rd=2.00 / psy-rdoq=3.00 / deblock=-1:-1 / ref=5 / limit-refs=0 / no-limit-modes / bframes=8 / b-adapt=2 / bframe-bias=0 / b-pyramid / b-intra / weightp / weightb / min-keyint=23 / max-keyint=240 / rc-lookahead=60 / gop-lookahead=0 / NTMzNTQ=uuDQuD2mJt9fsCf / scenecut=40 / hist-scenecut=0 / radl=0 / max-cu-size=32 / min-cu-size=8 / me=3 / subme=4 / merange=25 / rdoq-level=2 / rd=4 / rdpenalty=1 / dynamic-rd=0.00 / no-rd-refine / ----- / no-cutree / no-sao / no-rect / no-amp / no-open-gop / wpp / pmode / pme / no-psnr / no-ssim / nr-intra=0 / nr-inter=0 / no-constrained-intra / no-strong-intra-smoothing / max-tu-size=32 / tu-inter-depth=2 / tu-intra-depth=2 / limit-tu=0 / qg-size=32 / qpmax=69 / qpmin=0 / ----- / cpuid=533541176575 / frame-threads=6 / numa-pools=54,- / log-level=2 / input-csp=1 / input-res=3840x2160 / interlace=0 / level-idc=0 / high-tier=1 / uhd-bd=0 / no-allow-non-conformance / repeat-headers / aud / hrd / info / hash=0 / no-temporal-layers / lookahead-slices=0 / no-splice / no-intra-refresh / no-ssim-rd / signhide / no-tskip / max-merge=3 / temporal-mvp / no-frame-dup / no-hme / no-analyze-src-pics / no-sao-non-deblock / selective-sao=0 / no-early-skip / no-rskip / no-fast-intra / no-tskip-fast / no-splitrd-skip / zone-count=0 / no-strict-cbr / no-rc-grain / no-const-vbv / sar=0 / overscan=0 / videoformat=5 / range=0 / colorprim=9 / transfer=16 / colormatrix=9 / chromaloc=0 / display-window=0 / master-display=G(13250,34500)B(7500,3000)R(34000,16000)WP(15635,16450)L(10000000,1) / cll=922,600 / min-luma=0 / max-luma=1023 / log2-max-poc-lsb=8 / vui-timing-info / vui-hrd-info / slices=1 / no-opt-qp-pps / no-opt-ref-list-length-pps / no-multi-pass-opt-rps / scenecut-bias=0.05 / hist-threshold=0.01 / no-opt-cu-delta-qp / no-aq-motion / hdr10 / hdr10-opt / no-dhdr10-opt / no-idr-recovery-sei / analysis-reuse-level=0 / analysis-save-reuse-level=0 / analysis-load-reuse-level=0 / scale-factor=0 / refine-intra=0 / refine-inter=0 / refine-mv=1 / refine-ctu-distortion=0 / no-limit-sao / ctu-info=0 / no-lowpass-dct / refine-analysis-type=0 / copy-pic=1 / max-ausize-factor=1.0 / no-dynamic-refine / no-single-sei / no-hevc-aq / no-svt / no-field / qp-adaptation-range=1.00 / no-scenecut-aware-qpconformance-window-offsets / right=0 / bottom=0 / NTMzNTQ=

  35. Default : Yes

  36. Forced : No

  37. Color range : Limited

  38. Color primaries : BT.2020

  39. Transfer characteristics : PQ

  40. Matrix coefficients : BT.2020 non-constant

  41. Mastering display color primaries : Display P3

  42. Mastering display luminance : min: 0.0001 cd/m2, max: 1000 cd/m2

  43. Maximum Content Light Level : 922 cd/m2

  44. Maximum Frame-Average Light Level : 600 cd/m2


  45. Audio

  46. ID : 2

  47. Format : MLP FBA 16-ch

  48. Format/Info : Meridian Lossless Packing FBA with 16-channel presentation

  49. Commercial name : Dolby TrueHD with Dolby Atmos

  50. Codec ID : A_TRUEHD

  51. Duration : 2 h 10 min

  52. Bit rate mode : Variable

  53. Bit rate : 4 704 kb/s

  54. Maximum bit rate : 8 046 kb/s

  55. Channel(s) : 8 channels

  56. Channel layout : L R C LFE Ls Rs Lb Rb

  57. Sampling rate : 48.0 kHz

  58. Frame rate : 1 200.000 FPS (40 SPF)

  59. Compression mode : Lossless

  60. Stream size : 4.28 GiB (17%)

  61. Title : 英语

  62. Language : English

  63. Default : Yes

  64. Forced : No

  65. Number of dynamic objects : 11

  66. Bed channel count : 1 channel

  67. Bed channel configuration : LFE


  68. Text #1

  69. ID : 3

  70. Format : PGS

  71. Muxing mode : zlib

  72. Codec ID : S_HDMV/PGS

  73. Codec ID/Info : Picture based subtitle format used on BDs/HD-DVDs

  74. Duration : 2 h 0 min

  75. Bit rate : 152 kb/s

  76. Count of elements : 15342

  77. Stream size : 131 MiB (0%)

  78. Title : 简中特效

  79. Language : Chinese

  80. Default : Yes

  81. Forced : No


  82. Text #2

  83. ID : 4

  84. Format : PGS

  85. Muxing mode : zlib

  86. Codec ID : S_HDMV/PGS

  87. Codec ID/Info : Picture based subtitle format used on BDs/HD-DVDs

  88. Duration : 2 h 4 min

  89. Bit rate : 226 kb/s

  90. Count of elements : 10370

  91. Stream size : 201 MiB (1%)

  92. Title : 双语特效

  93. Language : Chinese

  94. Default : No

  95. Forced : No


  96. Text #3

  97. ID : 5

  98. Format : PGS

  99. Muxing mode : zlib

  100. Codec ID : S_HDMV/PGS

  101. Codec ID/Info : Picture based subtitle format used on BDs/HD-DVDs

  102. Duration : 2 h 0 min

  103. Bit rate : 34.6 kb/s

  104. Count of elements : 3354

  105. Stream size : 29.9 MiB (0%)

  106. Title : 英文

  107. Language : English

  108. Default : No

  109. Forced : No


  110. Text #4

  111. ID : 6

  112. ID in the original source medium : 4770 (0x12A2)

  113. Format : PGS

  114. Muxing mode : zlib

  115. Codec ID : S_HDMV/PGS

  116. Codec ID/Info : Picture based subtitle format used on BDs/HD-DVDs

  117. Duration : 2 h 0 min

  118. Bit rate : 32.1 kb/s

  119. Count of elements : 3396

  120. Stream size : 27.7 MiB (0%)

  121. Title : 西班牙

  122. Language : Spanish

  123. Default : No

  124. Forced : No

  125. Original source medium : Blu-ray


  126. Text #5

  127. ID : 7

  128. ID in the original source medium : 4771 (0x12A3)

  129. Format : PGS

  130. Muxing mode : zlib

  131. Codec ID : S_HDMV/PGS

  132. Codec ID/Info : Picture based subtitle format used on BDs/HD-DVDs

  133. Duration : 2 h 10 min

  134. Bit rate : 35.1 kb/s

  135. Count of elements : 3552

  136. Stream size : 32.6 MiB (0%)

  137. Title : 法文

  138. Language : French

  139. Default : No

  140. Forced : No

  141. Original source medium : Blu-NewHD

复制代码



文件下载


除非特别注明,本文『月球陨落[杜比视界版本][中英特效字幕].Moonfall.2022.UHD.BluRay.2160p.x265.10bit.DoVi-MiniHD 25.82GB』来源于互联网机器人自动抓取,非本站原创。 浮游电影网不对本文拥有版权,如有侵犯,请联系邮箱:fuyouu#yandex.com[#换成@]投诉。我们会在15个工作日内删除。 但烦请转载时请标明出处:“本文转载于『浮游电影网』,原文地址:https://www.fuyouu.com/21790.html

评论吧骚年!

发表你的见解   

昵称*

E-mail*(建议输入,以便收到博主回复的提示邮件)

验证码*

您可以使用eMule或eMule Mod(Windows)、aMule(Win、Linux、Mac)等软件下载eD2k链接。。
eMule收藏集(.emulecollection)文件是您选中的所有链接的列表文件。eMule可以直接下载它们。
按住SHIFT键选择可以选中多个选择框。
可用文件名和大小选择器来选择文件。
文件名选择器帮您根据文件名称或后缀来选择文件。不分大小写。
符号使用:
和:空格( )、+
不包含:-
或:|
转义:一对英文引号("");
匹配开头:^
匹配结尾:$
例如:
选中所有名称中包含有“eMule”或“0.49c”字眼,但不包含有“exe”字眼的:emule|0.49c -exe
选中所有名称的开头是“eMule”,结尾是“0.49c”的:^emule 0.49c$
选中所有名称中带有“eMule 0.49c”的(必须是“eMule 0.49c”,中间没有别的字符,不能是“eMule fake 0.49c”),需要转义:"emule 0.49c"
大小选择器帮您根据文件大小选择文件。