当前位置: 首页 >> 欧美电影 >> 十二猴子[国英多音轨/简特效字幕].12.monkeys.1995.2160p.UHD.BluRay.2160p.x265.10bit.HDR.4Audios-MiniHD 26.55GB >> 正文

十二猴子[国英多音轨/简特效字幕].12.monkeys.1995.2160p.UHD.BluRay.2160p.x265.10bit.HDR.4Audios-MiniHD 26.55GB

2022年04月30日 13:44:16     电影发布:来源于网络     电影分类:欧美电影     评论(0)    

◎译 名 十二猴子 / 未来总动员(台) / 12猴子 / 十二猴子军 / 十二只猴子

◎片 名 Twelve Monkeys

◎年 代 1995

◎产 地 美国

◎类 别 科幻 / 悬疑 / 惊悚

◎语 言 英语 / 法语

◎上映日期 1995-12-08(纽约首映) / 1996-01-05(美国)

◎IMDb链接 https://www.imdb.com/title/tt0114746/

◎豆瓣评分 8.2/10 (208700人评价)

◎豆瓣链接 https://movie.douban.com/subject/1298744/

◎片 长 129分钟

◎导 演 特瑞·吉列姆 Terry Gilliam (id:1047980)

◎编 剧 克里斯·马克 Chris Marker (id:1025376)

大卫·韦伯·皮普尔斯 David Webb Peoples (id:1294259)

珍妮特·皮普尔斯 Janet Peoples (id:1294261)

◎演 员 布鲁斯·威利斯 Bruce Willis (id:1010509)

玛德琳·斯托 Madeleine Stowe (id:1022636)

布拉德·皮特 Brad Pitt (id:1054452)

克里斯托弗·普卢默 Christopher Plummer (id:1036321)

大卫·摩斯 David Morse (id:1027810)

乔恩·塞达 Jon Seda (id:1027233)

迈克尔·禅斯 Michael Chance (id:1069393)

弗农·坎贝尔 Vernon Campbell (id:1075486)

西蒙·琼斯 Simon Jones (id:1105193)

Ernest Abuba Ernest Abuba (id:1055225)

Irma St. Paule Irma St. Paule (id:1159662)

乔伊佩里洛 Joey Perillo (id:1131026)

比尔·雷蒙德 Bill Raymond (id:1363632)

安妮·高登 Annie Golden (id:1092649)

罗杰·普拉特 Roger Pratt (id:1032441)

户田惠子 Keiko Toda (id:1051741)

理查德·斯坦利 Richard Stanley (id:1152390)

克里斯托弗·米洛尼 Christopher Meloni (id:1000052)

Aaron Michael Lacey Aaron Michael Lacey (id:1019306)

马特·罗斯 Matt Ross (id:1014057)

弗兰克·乔辛 Frank Gorshin (id:1002806)

斯蒂芬·布吉格沃特 Stephen Bridgewater (id:1050503)

菲利斯·皮雷 Felix Pire (id:1131003)

Julie Mabry Julie Mabry (id:1123448)

Yuri Korchenko Yuri Korchenko (id:1106101)

Stan Kang Stan Kang (id:1106011)

查克·杰弗里斯 Chuck Jeffreys (id:1103654)

Adam Hatley Adam Hatley (id:1091872)

Lenny Daniels Lenny Daniels (id:1089769)

丽莎盖伊·汉密尔顿 LisaGay Hamilton (id:1000303)

劳埃德·菲利普斯 Lloyd Phillips (id:1294461)

罗伯特·考斯伯格 Robert Kosberg (id:1037534)

加里·莱温索恩 Gary Levinsohn (id:1289901)

Robert Cavallo Robert Cavallo (id:1280319)

查尔斯·罗文 Charles Roven (id:1023082)

保罗·巴克马斯特 Paul Buckmaster (id:1279563)

罗杰·普拉特 Roger Pratt (id:1032441)

米克·奥兹利 Mick Audsley (id:1277571)

玛格莉·辛姆金 Margery Simkin (id:1297613)

杰弗里·比克罗夫特 Jeffrey Beecroft (id:1278211)

克里斯皮安·萨利斯 Crispian Sallis (id:1141089)

William Ladd Skinner William Ladd Skinner (id:1297738)

朱莉·维斯 Julie Weiss (id:1300651)

克丝缇·碧芙丽绮 Christine Beveridge (id:1278568)

Allen Weisinger Allen Weisinger (id:1300632)

肯特·休斯顿 Kent Houston (id:1286980)

Ditch Doy Ditch Doy (id:1282677)

理查德·贝恩 Richard Bain (id:1008396)

◎简 介

公元2035年,人类被12只猴子军研制的一种病毒侵袭,大部分人类都在这场病毒灾难中死亡,只有少数人侥幸逃生,但也只能在阴暗的地下,苟且偷生。

科学家们决定派人穿越时光回到1996年追查12只猴子军的来历。囚徒詹姆斯·科尔(布鲁斯·威利斯 Bruce Willis 饰)被 挑选为志愿者。阴差阳错,科尔回到了1990年,当他向当时的人们描述未来的那场大灾难时,被当作精神病捉了起来并被医生凯瑟琳·雪莉(玛德琳·斯通 Madeleine Stowe 饰)诊断为精神分裂症。科尔在病友杰弗里·戈因斯帮助下逃脱,回到了未来。因为没查清12只猴子军的来历,科尔再次被派回了1996年。

科尔这次发现了12只猴子军的起源地在费城,他找到了医生凯瑟琳,二人一起展开了追查12只猴子军的冒险之旅!

◎获奖情况 (共5项)

第68届奥斯卡金像奖 (1996)

最佳男配角(提名)

└──布拉德·皮特 (id:1054452)

最佳服装设计(提名)

└──朱莉·维斯 (id:1300651)

第46届柏林国际电影节 (1996)

金熊奖 最佳影片(提名)

└──特瑞·吉列姆 (id:1047980)

第53届金球奖 (1996)

电影类 最佳男配角

└──布拉德·皮特 (id:1054452)

第20届日本电影学院奖 (1997)

最佳外语片(提名)

  1. ##### MediaInfo ######

  2. General

  3. Unique ID : 26950186460916946563096940165400179810 (0x14466AC7CC8797C7F894E37E5B513462)

  4. Complete name : 12.monkeys.1995.2160p.UHD.BluRay.2160p.x265.10bit.HDR.4Audios-MiniHD.mkv

  5. Format : Matroska

  6. Format version : Version 4

  7. File size : 26.5 GiB

  8. Duration : 2 h 9 min

  9. Overall bit rate mode : Variable

  10. Overall bit rate : 29.3 Mb/s

  11. Encoded date : UTC 2022-04-28 11:41:54

  12. Writing application : mkvmerge v66.0.0 ('Josie') 64-bit

  13. Writing library : libebml v1.4.2 + libmatroska v1.6.4


  14. Video

  15. ID : 1

  16. Format : HEVC

  17. Format/Info : High Efficiency Video Coding

  18. Format profile : Main [email protected]@High

  19. HDR format : SMPTE ST 2086, HDR10 compatible

  20. Codec ID : V_MPEGH/ISO/HEVC

  21. Duration : 2 h 9 min

  22. Bit rate : 24.0 Mb/s

  23. Width : 3 840 pixels

  24. Height : 2 076 pixels

  25. Display aspect ratio : 1.85:1

  26. Frame rate mode : Constant

  27. Frame rate : 23.976 (24000/1001/53354) FPS

  28. Color space : YUV

  29. Chroma subsampling : 4:2:0

  30. Bit depth : 10 bits

  31. Bits/(Pixel*Frame) : 0.126

  32. Stream size : 21.7 GiB (82%)

  33. Writing library : x265 3.3+3-g8f8e332f1+29:[Windows][#Erg`Djh#][@Yuuki] made by @Dongfangbubai

  34. Encoding settings : rc=crf / crf=19.0000 / qcomp=0.70 / qpstep=4 / stats-write=0 / stats-read=0 / vbv-maxrate=160000 / vbv-bufsize=160000 / vbv-init=0.9 / crf-max=0.0 / crf-min=0.0 / no-lossless / no-cu-lossless / aq-mode=3 / aq-strength=0.80 / cbqpoffs=-3 / crqpoffs=-3 / ipratio=1.40 / pbratio=1.30 / psy-rd=2.00 / psy-rdoq=3.00 / deblock=-1:-1 / ref=5 / limit-refs=0 / no-limit-modes / bframes=8 / b-adapt=2 / bframe-bias=0 / b-pyramid / b-intra / weightp / weightb / min-keyint=23 / max-keyint=240 / rc-lookahead=60 / gop-lookahead=0 / NTMzNTQ=uuDQuD2mJt9fsCf / scenecut=40 / hist-scenecut=0 / radl=0 / max-cu-size=32 / min-cu-size=8 / me=3 / subme=4 / merange=25 / rdoq-level=2 / rd=4 / rdpenalty=1 / dynamic-rd=0.00 / no-rd-refine / ----- / no-cutree / no-sao / no-rect / no-amp / no-open-gop / wpp / pmode / pme / no-psnr / no-ssim / nr-intra=0 / nr-inter=0 / no-constrained-intra / no-strong-intra-smoothing / max-tu-size=32 / tu-inter-depth=2 / tu-intra-depth=2 / limit-tu=0 / qg-size=32 / qpmax=69 / qpmin=0 / ----- / cpuid=533541176575 / frame-threads=6 / numa-pools=54,- / log-level=2 / input-csp=1 / input-res=3840x2076 / interlace=0 / level-idc=0 / high-tier=1 / uhd-bd=0 / no-allow-non-conformance / repeat-headers / no-aud / hrd / info / hash=0 / no-temporal-layers / lookahead-slices=0 / no-splice / no-intra-refresh / no-ssim-rd / signhide / no-tskip / max-merge=3 / temporal-mvp / no-frame-dup / no-hme / no-analyze-src-pics / no-sao-non-deblock / selective-sao=0 / no-early-skip / no-rskip / no-fast-intra / no-tskip-fast / no-splitrd-skip / zone-count=0 / no-strict-cbr / no-rc-grain / no-const-vbv / sar=0 / overscan=0 / videoformat=5 / range=0 / colorprim=9 / transfer=16 / colormatrix=9 / chromaloc=0 / display-window=0 / master-display=G(13250,34500)B(7500,3000)R(34000,16000)WP(15635,16450)L(10000000,1) / cll=0,0 / min-luma=0 / max-luma=1023 / log2-max-poc-lsb=8 / vui-timing-info / vui-hrd-info / slices=1 / no-opt-qp-pps / no-opt-ref-list-length-pps / no-multi-pass-opt-rps / scenecut-bias=0.05 / hist-threshold=0.01 / no-opt-cu-delta-qp / no-aq-motion / hdr10 / hdr10-opt / no-dhdr10-opt / no-idr-recovery-sei / analysis-reuse-level=0 / analysis-save-reuse-level=0 / analysis-load-reuse-level=0 / scale-factor=0 / refine-intra=0 / refine-inter=0 / refine-mv=1 / refine-ctu-distortion=0 / no-limit-sao / ctu-info=0 / no-lowpass-dct / refine-analysis-type=0 / copy-pic=1 / max-ausize-factor=1.0 / no-dynamic-refine / no-single-sei / no-hevc-aq / no-svt / no-field / qp-adaptation-range=1.00 / no-scenecut-aware-qpconformance-window-offsets / right=0 / bottom=0 / NTMzNTQ=

  35. Default : Yes

  36. Forced : No

  37. Color range : Limited

  38. Color primaries : BT.2020

  39. Transfer characteristics : PQ

  40. Matrix coefficients : BT.2020 non-constant

  41. Mastering display color primaries : Display P3

  42. Mastering display luminance : min: 0.0001 cd/m2, max: 1000 cd/m2


  43. Audio #1

  44. ID : 2

  45. Format : DTS XLL

  46. Format/Info : Digital Theater Systems

  47. Commercial name : DTS-HD Master Audio

  48. Codec ID : A_DTS

  49. Duration : 2 h 9 min

  50. Bit rate mode : Variable

  51. Bit rate : 3 901 kb/s

  52. Channel(s) : 6 channels

  53. Channel layout : C L R Ls Rs LFE

  54. Sampling rate : 48.0 kHz

  55. Frame rate : 93.750 FPS (512 SPF)

  56. Bit depth : 24 bits

  57. Compression mode : Lossless

  58. Stream size : 3.53 GiB (13%)

  59. Title : 英语

  60. Language : English

  61. Default : Yes

  62. Forced : No


  63. Audio #2

  64. ID : 3

  65. Format : AC-3

  66. Format/Info : Audio Coding 3

  67. Commercial name : Dolby Digital

  68. Codec ID : A_AC3

  69. Duration : 2 h 9 min

  70. Bit rate mode : Constant

  71. Bit rate : 448 kb/s

  72. Channel(s) : 6 channels

  73. Channel layout : L R C LFE Ls Rs

  74. Sampling rate : 48.0 kHz

  75. Frame rate : 31.250 FPS (1536 SPF)

  76. Compression mode : Lossy

  77. Delay relative to video : 24 ms

  78. Stream size : 415 MiB (2%)

  79. Title : 东影上译国语

  80. Language : Chinese

  81. Service kind : Complete Main

  82. Default : No

  83. Forced : No


  84. Audio #3

  85. ID : 4

  86. Format : AC-3

  87. Format/Info : Audio Coding 3

  88. Commercial name : Dolby Digital

  89. Codec ID : A_AC3

  90. Duration : 2 h 9 min

  91. Bit rate mode : Constant

  92. Bit rate : 384 kb/s

  93. Channel(s) : 2 channels

  94. Channel layout : L R

  95. Sampling rate : 48.0 kHz

  96. Frame rate : 31.250 FPS (1536 SPF)

  97. Compression mode : Lossy

  98. Delay relative to video : 24 ms

  99. Stream size : 356 MiB (1%)

  100. Title : 长译国语

  101. Language : Chinese

  102. Service kind : Complete Main

  103. Default : No

  104. Forced : No


  105. Audio #4

  106. ID : 5

  107. Format : AC-3

  108. Format/Info : Audio Coding 3

  109. Commercial name : Dolby Digital

  110. Codec ID : A_AC3

  111. Duration : 2 h 9 min

  112. Bit rate mode : Constant

  113. Bit rate : 384 kb/s

  114. Channel(s) : 2 channels

  115. Channel layout : L R

  116. Sampling rate : 48.0 kHz

  117. Frame rate : 31.250 FPS (1536 SPF)

  118. Compression mode : Lossy

  119. Delay relative to video : 24 ms

  120. Stream size : 356 MiB (1%)

  121. Title : 内参国语

  122. Language : Chinese

  123. Service kind : Complete Main

  124. Default : No

  125. Forced : No


  126. Text #1

  127. ID : 6

  128. Format : PGS

  129. Muxing mode : zlib

  130. Codec ID : S_HDMV/PGS

  131. Codec ID/Info : Picture based subtitle format used on BDs/HD-DVDs

  132. Duration : 2 h 7 min

  133. Bit rate : 160 kb/s

  134. Count of elements : 11194

  135. Stream size : 146 MiB (1%)

  136. Title : 上译特效

  137. Language : Chinese

  138. Default : Yes

  139. Forced : No


  140. Text #2

  141. ID : 7

  142. Format : PGS

  143. Muxing mode : zlib

  144. Codec ID : S_HDMV/PGS

  145. Codec ID/Info : Picture based subtitle format used on BDs/HD-DVDs

  146. Duration : 2 h 7 min

  147. Bit rate : 199 kb/s

  148. Count of elements : 10438

  149. Stream size : 182 MiB (1%)

  150. Title : 双语特效

  151. Language : Chinese

  152. Default : No

  153. Forced : No


  154. Text #3

  155. ID : 8

  156. Format : PGS

  157. Muxing mode : zlib

  158. Codec ID : S_HDMV/PGS

  159. Codec ID/Info : Picture based subtitle format used on BDs/HD-DVDs

  160. Duration : 2 h 7 min

  161. Bit rate : 30.4 kb/s

  162. Count of elements : 3619

  163. Stream size : 27.7 MiB (0%)

  164. Title : 官方简中

  165. Language : Chinese

  166. Default : No

  167. Forced : No


  168. Text #4

  169. ID : 9

  170. Format : PGS

  171. Muxing mode : zlib

  172. Codec ID : S_HDMV/PGS

  173. Codec ID/Info : Picture based subtitle format used on BDs/HD-DVDs

  174. Duration : 2 h 7 min

  175. Bit rate : 31.0 kb/s

  176. Count of elements : 3619

  177. Stream size : 28.2 MiB (0%)

  178. Title : 官方繁中

  179. Language : Chinese

  180. Default : No

  181. Forced : No


  182. Text #5

  183. ID : 10

  184. Format : PGS

  185. Muxing mode : zlib

  186. Codec ID : S_HDMV/PGS

  187. Codec ID/Info : Picture based subtitle format used on BDs/HD-NewHD

复制代码



文件下载


除非特别注明,本文『十二猴子[国英多音轨/简特效字幕].12.monkeys.1995.2160p.UHD.BluRay.2160p.x265.10bit.HDR.4Audios-MiniHD 26.55GB』来源于互联网机器人自动抓取,非本站原创。 浮游电影网不对本文拥有版权,如有侵犯,请联系邮箱:fuyouu#yandex.com[#换成@]投诉。我们会在15个工作日内删除。 但烦请转载时请标明出处:“本文转载于『浮游电影网』,原文地址:https://www.fuyouu.com/21789.html

评论吧骚年!

发表你的见解   

昵称*

E-mail*(建议输入,以便收到博主回复的提示邮件)

验证码*

您可以使用eMule或eMule Mod(Windows)、aMule(Win、Linux、Mac)等软件下载eD2k链接。。
eMule收藏集(.emulecollection)文件是您选中的所有链接的列表文件。eMule可以直接下载它们。
按住SHIFT键选择可以选中多个选择框。
可用文件名和大小选择器来选择文件。
文件名选择器帮您根据文件名称或后缀来选择文件。不分大小写。
符号使用:
和:空格( )、+
不包含:-
或:|
转义:一对英文引号("");
匹配开头:^
匹配结尾:$
例如:
选中所有名称中包含有“eMule”或“0.49c”字眼,但不包含有“exe”字眼的:emule|0.49c -exe
选中所有名称的开头是“eMule”,结尾是“0.49c”的:^emule 0.49c$
选中所有名称中带有“eMule 0.49c”的(必须是“eMule 0.49c”,中间没有别的字符,不能是“eMule fake 0.49c”),需要转义:"emule 0.49c"
大小选择器帮您根据文件大小选择文件。