当前位置: 首页 >> 欧美电影 >> 五路追杀令[共2部合集][简繁英字幕].Smokin.Aces.1-2.2006-2010.BluRay.1080p.DTS-HD.MA5.1.x265.10bit-ALT 20.50GB >> 正文

五路追杀令[共2部合集][简繁英字幕].Smokin.Aces.1-2.2006-2010.BluRay.1080p.DTS-HD.MA5.1.x265.10bit-ALT 20.50GB

2022年04月30日 13:38:08     电影发布:来源于网络     电影分类:欧美电影     评论(0)    

◎译 名 五路追杀令 / 皇牌追杀令(港) / 呛烟高手 / 赌国追杀令 / 群雄逐鹿

◎片 名 Smokin' Aces

◎年 代 2006

◎产 地 美国 / 英国 / 法国

◎类 别 剧情 / 动作 / 惊悚 / 犯罪

◎语 言 英语

◎上映日期 2006-12-09(奥斯汀BNAT) / 2007-01-12(英国)

◎IMDb链接 https://www.imdb.com/title/tt0475394/

◎豆瓣评分 6.9/10 (14634人评价)

◎豆瓣链接 https://movie.douban.com/subject/1865012/

◎片 长 109 分钟

◎导 演 乔·卡纳汉 Joe Carnahan (id:1044728)

◎编 剧 乔·卡纳汉 Joe Carnahan (id:1044728)

◎演 员 瑞安·雷诺兹 Ryan Reynolds (id:1053623)

雷·利奥塔 Ray Liotta (id:1036326)

本·阿弗莱克 Ben Affleck (id:1054417)

彼得·博格 Peter Berg (id:1031938)

安迪·加西亚 Andy Garcia (id:1002695)

塔拉吉·P·汉森 Taraji P. Henson (id:1049487)

克里斯·派恩 Chris Pine (id:1053621)

杰森·贝特曼 Jason Bateman (id:1013760)

马修·福克斯 Matthew Fox (id:1009255)

凯文·杜兰 Kevin Durand (id:1013790)

乔尔·埃哲顿 Joel Edgerton (id:1010631)

艾丽西亚·凯斯 Alicia Keys (id:1004624)

汤米·弗拉纳根 Tommy Flanagan (id:1081424)

布莱恩·布鲁姆 Brian Bloom (id:1010538)

马丁·亨德森 Martin Henderson (id:1027267)

科曼 Common (id:1031947)

阿历克斯·罗克 Alex Rocco (id:1032109)

内斯特·卡博内尔 Nestor Carbonell (id:1036424)

柯蒂斯·阿姆斯壮 Curtis Armstrong (id:1036527)

斯科特·布鲁姆 Scott Bloom (id:1022832)

Jeff Habberstad Jeff Habberstad (id:1285749)

杰里米·皮文 Jeremy Piven (id:1027071)

P. David Miller P. David Miller (id:1121965)

韦恩·牛顿 Wayne Newton (id:1136403)

克拉儿·凯瑞 Clare Carey (id:1018133)

大卫·普罗瓦尔 David Proval (id:1048222)

克里斯托弗·迈克尔·霍利 Christopher Michael Holley (id:1239727)

玛丽安妮·穆勒雷尔 Marianne Muellerleile (id:1132232)

Al Woodley Al Woodley (id:1055222)

达文尼亚·麦克法登 Davenia McFadden (id:1116054)

弗拉基米尔库利奇 Vladimir Kulich (id:1111672)

乔治·费舍尔 George Fisher (id:1083425)

Christopher Murray Christopher Murray (id:1136317)

约瑟夫·拉斯金 Joseph Ruskin (id:1144777)

Zach Cümer Zach Cümer (id:1236535)

Sheryl Chambers (id:1233745)

Mike Falkow Mike Falkow (id:1206505)

James Henderson James Henderson (id:1198609)

Scott Halberstadt Scott Halberstadt (id:1191741)

戴维·戈德史密斯 David Goldsmith (id:1167316)

莫瑞·史特林 Maury Sterling (id:1151824)

Nick Fenske Nick Fenske (id:1081652)

蒂姆·贝文 Tim Bevan (id:1278562)

Noel Donnellon Noel Donnellon (id:1051897)

罗伯特·格拉夫 Robert Graf (id:1092343)

埃里克·菲尔纳 Eric Fellner (id:1283560)

David Z. Obadiah David Z. Obadiah (id:1307856)

克林特·曼塞尔 Clint Mansell (id:1014159)

摩洛·斐欧拉 Mauro Fiore (id:1283756)

罗伯特·弗雷岑 Robert Frazen (id:1284123)

Amanda Mackey Johnson Amanda Mackey Johnson (id:1290650)

凯茜·桑德里奇 Cathy Sandrich (id:1296638)

马丁·惠斯特 Martin Whist (id:1300788)

Maria L. Baker Maria L. Baker (id:1277738)

玛丽·索弗瑞斯 Mary Zophres (id:1000969)

Anna Fleiner Anna Fleiner (id:1083059)

Cindy J. Williams Cindy J. Williams (id:1300951)

里克·斯特拉顿 Rick Stratton (id:1298538)

Teressa Hill Teressa Hill (id:1161004)

Evelyn Rozenfeld Evelyn Rozenfeld (id:1296255)

托尼·加德纳 Tony Gardner (id:1284564)

格雷格·方克 Greg Funk (id:1284333)

本布雷 Ben Bray (id:1276504)

Justin Muller Justin Muller (id:1136597)

布莱恩·福尔摩斯 Brian Holmes (id:1240351)

丹·考夫曼 Dan Kaufman (id:1288219)

托马斯·J·史密斯 Thomas J. Smith (id:1276658)

Jim O'Hagan Jim O'Hagan (id:1126364)

罗伯特·明斯克 Robert Minsk (id:1116366)

John Cassella John Cassella (id:1072146)

◎简 介

美国黑手党头目老普莱摩生命垂危,而此时他昔日的手下——魔术师巴迪(Jeremy Piven 饰)正与警方谈判,试图通过做污点证人来减轻自己的抢劫罪行,病床上的普莱摩下令拿到巴迪的心脏,并委托一名神秘的瑞典人处理此事。黑手党二号人物迅速发出了一百万美元的悬赏,誓要取得巴迪性命。截获此消息的警探理查德(Ryan Reynolds 饰)与唐纳德马上前往巴迪的所在地——太浩湖。与此同时,高额悬赏吸引了各路杀手,包括疯狂的纳粹三兄弟、辣妹双人组、易容杀手以及擅于刑讯的雇佣兵,三名离职警察亦同时受律师委托,带回弃保的巴迪。一时间,各路人马先后杀到巴迪潜藏的豪华酒店,将那里变成了混乱的战场……尘埃落定之后,理查德却发现了此案背后的玄机。

  1. 合集文件列表:

  2. 1.Smokin.Aces.2.Assassins.Ball.2010.BluRay.1080p.DTS-HD.MA5.1.x265.10bit-ALT.mkv 9.88GB

  3. 2.Smokin.Aces.2006.BluRay.1080p.DTS-HD.MA5.1.x265.10bit-ALT.mkv 10.62GB


复制代码

  1. ##### MediaInfo ######

  2. General

  3. Unique ID : 245108021728951443787963641391877744218 (0xB866167E5E56DF6BE1E205257408665A)

  4. Complete name : Smokin.Aces.2.Assassins.Ball.2010.BluRay.1080p.DTS-HD.MA5.1.x265.10bit-ALT.mkv

  5. Format : Matroska

  6. Format version : Version 4

  7. File size : 9.88 GiB

  8. Duration : 1 h 28 min

  9. Overall bit rate mode : Variable

  10. Overall bit rate : 16.1 Mb/s

  11. Encoded date : UTC 2020-10-13 06:37:47

  12. Writing application : mkvmerge v49.0.0 ('Sick Of Losing Soulmates') 64-bit

  13. Writing library : libebml v1.4.0 + libmatroska v1.6.1


  14. Video

  15. ID : 1

  16. Format : HEVC

  17. Format/Info : High Efficiency Video Coding

  18. Format profile : Main [email protected]@High

  19. Codec ID : V_MPEGH/ISO/HEVC

  20. Duration : 1 h 28 min

  21. Bit rate : 11.8 Mb/s

  22. Width : 1 920 pixels

  23. Height : 1 080 pixels

  24. Display aspect ratio : 16:9

  25. Frame rate mode : Constant

  26. Frame rate : 23.976 (24000/1001/53354) FPS

  27. Color space : YUV

  28. Chroma subsampling : 4:2:0

  29. Bit depth : 10 bits

  30. Bits/(Pixel*Frame) : 0.238

  31. Stream size : 7.28 GiB (74%)

  32. Title : HEVC, [email protected]@High, 24/1.001 fps @ 11844 kbps

  33. Writing library : x265 3.4+14-gd419c7152:[Windows][GCC 10.2.0][64 bit] 10bit

  34. Encoding settings : cpuid=533541111039 / frame-threads=5 / numa-pools=44,44 / wpp / pmode / pme / no-psnr / no-ssim / log-level=2 / input-csp=1 / input-res=1920x1080 / interlace=0 / total-frames=126648 / level-idc=51 / high-tier=1 / uhd-bd=0 / ref=5 / no-allow-non-conformance / no-repeat-headers / annexb / no-aud / no-hrd / info / hash=0 / no-temporal-layers / open-gop / min-keyint=24 / keyint=240 / gop-lookahead=0 / bframes=6 / b-adapt=2 / b-pyramid / bframe-bias=0 / rc-lookahead=40 / lookahead-slices=0 / NTMzNTQ=uuDQuD2mJt9fsCf / scenecut=40 / hist-scenecut=0 / radl=0 / no-splice / no-intra-refresh / ctu=32 / min-cu-size=8 / no-rect / no-amp / max-tu-size=32 / tu-inter-depth=3 / tu-intra-depth=3 / limit-tu=4 / rdoq-level=2 / dynamic-rd=0.00 / no-ssim-rd / signhide / no-tskip / nr-intra=0 / nr-inter=0 / no-constrained-intra / no-strong-intra-smoothing / max-merge=4 / limit-refs=1 / limit-modes / me=3 / subme=4 / merange=25 / temporal-mvp / no-frame-dup / no-hme / weightp / weightb / no-analyze-src-pics / deblock=-3:-3 / no-sao / no-sao-non-deblock / rd=6 / selective-sao=0 / no-early-skip / rskip / no-fast-intra / no-tskip-fast / no-cu-lossless / b-intra / no-splitrd-skip / rdpenalty=0 / psy-rd=2.00 / psy-rdoq=1.00 / no-rd-refine / no-lossless / cbqpoffs=0 / crqpoffs=0 / rc=crf / crf=19.5 / qcomp=0.65 / qpstep=4 / stats-write=0 / stats-read=0 / vbv-maxrate=80000 / vbv-bufsize=80000 / vbv-init=0.9 / crf-max=0.0 / crf-min=0.0 / ipratio=1.40 / pbratio=1.30 / aq-mode=2 / aq-strength=0.85 / cutree / zone-count=0 / no-strict-cbr / qg-size=32 / no-rc-grain / qpmax=69 / qpmin=0 / no-const-vbv / sar=1 / overscan=0 / videoformat=5 / range=0 / colorprim=1 / transfer=1 / colormatrix=1 / chromaloc=0 / display-window=0 / cll=0,0 / min-luma=0 / max-luma=1023 / log2-max-poc-lsb=8 / vui-timing-info / vui-hrd-info / slices=1 / no-opt-qp-pps / no-opt-ref-list-length-pps / no-multi-pass-opt-rps / scenecut-bias=0.05 / hist-threshold=0.03 / no-opt-cu-delta-qp / no-aq-motion / no-hdr10 / no-hdr10-opt / no-dhdr10-opt / no-idr-recovery-sei / analysis-reuse-level=0 / analysis-save-reuse-level=0 / analysis-load-reuse-level=0 / scale-factor=0 / refine-intra=0 / refine-inter=0 / refine-mv=1 / refine-ctu-distortion=0 / no-limit-sao / ctu-info=0 / no-lowpass-dct / refine-analysis-type=0 / copy-pic=1 / max-ausize-factor=1.0 / no-dynamic-refine / no-single-sei / no-hevc-aq / no-svt / no-field / qp-adaptation-range=1.00 / no-scenecut-aware-qpconformance-window-offsets / right=0 / bottom=0 / NTMzNTQ= / decoder-max-rate=0

  35. Language : English

  36. Default : Yes

  37. Forced : No

  38. Color range : Limited

  39. Color primaries : BT.709

  40. Transfer characteristics : BT.709

  41. Matrix coefficients : BT.709


  42. Audio #1

  43. ID : 2

  44. Format : DTS XLL

  45. Format/Info : Digital Theater Systems

  46. Commercial name : DTS-HD Master Audio

  47. Codec ID : A_DTS

  48. Duration : 1 h 28 min

  49. Bit rate mode : Variable

  50. Bit rate : 3 922 kb/s

  51. Channel(s) : 6 channels

  52. Channel layout : C L R Ls Rs LFE

  53. Sampling rate : 48.0 kHz

  54. Frame rate : 93.750 FPS (512 SPF)

  55. Bit depth : 24 bits

  56. Compression mode : Lossless

  57. Stream size : 2.41 GiB (24%)

  58. Title : English DTS-HD Master Audio 5.1 @ 3477 kbps

  59. Language : English

  60. Default : Yes

  61. Forced : No


  62. Audio #2

  63. ID : 3

  64. Format : AC-3

  65. Format/Info : Audio Coding 3

  66. Commercial name : Dolby Digital

  67. Codec ID : A_AC3

  68. Duration : 1 h 28 min

  69. Bit rate mode : Constant

  70. Bit rate : 192 kb/s

  71. Channel(s) : 2 channels

  72. Channel layout : L R

  73. Sampling rate : 48.0 kHz

  74. Frame rate : 31.250 FPS (1536 SPF)

  75. Compression mode : Lossy

  76. Stream size : 121 MiB (1%)

  77. Title : English Dolby Digital Audio 2.0 @ 192 kbps Commentary

  78. Language : English

  79. Service kind : Complete Main

  80. Default : No

  81. Forced : No


  82. Text #1

  83. ID : 4

  84. Format : PGS

  85. Codec ID : S_HDMV/PGS

  86. Codec ID/Info : Picture based subtitle format used on BDs/HD-DVDs

  87. Duration : 1 h 19 min

  88. Bit rate : 46.2 kb/s

  89. Count of elements : 2193

  90. Stream size : 26.2 MiB (0%)

  91. Title : Eng/SUP

  92. Language : English

  93. Default : No

  94. Forced : No


  95. Text #2

  96. ID : 5

  97. Format : PGS

  98. Codec ID : S_HDMV/PGS

  99. Codec ID/Info : Picture based subtitle format used on BDs/HD-DVDs

  100. Duration : 1 h 21 min

  101. Bit rate : 30.4 kb/s

  102. Count of elements : 2044

  103. Stream size : 17.7 MiB (0%)

  104. Title : Chs/SUP 简体

  105. Language : Chinese

  106. Default : Yes

  107. Forced : No


  108. Text #3

  109. ID : 6

  110. Format : PGS

  111. Codec ID : S_HDMV/PGS

  112. Codec ID/Info : Picture based subtitle format used on BDs/HD-DVDs

  113. Duration : 1 h 21 min

  114. Bit rate : 31.0 kb/s

  115. Count of elements : 2044

  116. Stream size : 18.0 MiB (0%)

  117. Title : Cht/SUP 繁体

  118. Language : Chinese

  119. Default : No

  120. Forced : No


  121. Menu

  122. 00:00:00.000 : :第 01 章

  123. 00:03:28.833 : :第 02 章

  124. 00:09:54.552 : :第 03 章

  125. 00:13:14.168 : :第 04 章

  126. 00:18:14.218 : :第 05 章

  127. 00:23:19.147 : :第 06 章

  128. 00:26:56.906 : :第 07 章

  129. 00:30:19.776 : :第 08 章

  130. 00:34:58.387 : :第 09 章

  131. 00:38:41.819 : :第 10 章

  132. 00:42:05.814 : :第 11 章

  133. 00:44:19.406 : :第 12 章

  134. 00:47:53.287 : :第 13 章

  135. 00:51:27.125 : :第 14 章

  136. 00:53:37.547 : :第 15 章

  137. 00:58:15.992 : :第 16 章

  138. 01:03:15.666 : :第 17 章

  139. 01:08:55.881 : :第 18 章

  140. 01:14:47.608 : :第 19 章

  141. 01:21:39.019 : :第 20 章




复制代码



文件下载


除非特别注明,本文『五路追杀令[共2部合集][简繁英字幕].Smokin.Aces.1-2.2006-2010.BluRay.1080p.DTS-HD.MA5.1.x265.10bit-ALT 20.50GB』来源于互联网机器人自动抓取,非本站原创。 浮游电影网不对本文拥有版权,如有侵犯,请联系邮箱:fuyouu#yandex.com[#换成@]投诉。我们会在15个工作日内删除。 但烦请转载时请标明出处:“本文转载于『浮游电影网』,原文地址:https://www.fuyouu.com/21784.html

评论吧骚年!

发表你的见解   

昵称*

E-mail*(建议输入,以便收到博主回复的提示邮件)

验证码*

您可以使用eMule或eMule Mod(Windows)、aMule(Win、Linux、Mac)等软件下载eD2k链接。。
eMule收藏集(.emulecollection)文件是您选中的所有链接的列表文件。eMule可以直接下载它们。
按住SHIFT键选择可以选中多个选择框。
可用文件名和大小选择器来选择文件。
文件名选择器帮您根据文件名称或后缀来选择文件。不分大小写。
符号使用:
和:空格( )、+
不包含:-
或:|
转义:一对英文引号("");
匹配开头:^
匹配结尾:$
例如:
选中所有名称中包含有“eMule”或“0.49c”字眼,但不包含有“exe”字眼的:emule|0.49c -exe
选中所有名称的开头是“eMule”,结尾是“0.49c”的:^emule 0.49c$
选中所有名称中带有“eMule 0.49c”的(必须是“eMule 0.49c”,中间没有别的字符,不能是“eMule fake 0.49c”),需要转义:"emule 0.49c"
大小选择器帮您根据文件大小选择文件。