当前位置: 首页 >> 港台电影 >> 安娜玛德莲娜[国语音轨/中文字幕].Anna.Magdalena.1998.CHINESE.2160p.iT.WEB-DL.x265.10bit.HDR.AAC2.0-MiON 17.00GB >> 正文

安娜玛德莲娜[国语音轨/中文字幕].Anna.Magdalena.1998.CHINESE.2160p.iT.WEB-DL.x265.10bit.HDR.AAC2.0-MiON 17.00GB

2022年04月29日 00:56:44     电影发布:来源于网络     电影分类:港台电影     评论(0)    

安娜玛德莲娜[国语音轨/中文字幕].Anna.Magdalena.1998.CHINESE.2160p.iT.WEB DL.x265.10bit.HDR.AAC2.0 MiON 17.00GB  港台电影  第1张

◎译 名 安娜玛德莲娜 / 香港夜疯狂 / Anna Madelina / Anna Magdalena

◎片 名 安娜瑪德蓮娜

◎年 代 1998

◎产 地 中国香港

◎类 别 喜剧 / 爱情

◎语 言 粤语

◎上映日期 1998-05-28

◎IMDb链接 https://www.imdb.com/title/tt0159251/

◎豆瓣评分 7.5/10 (10573人评价)

◎豆瓣链接 https://movie.douban.com/subject/1301974/

◎片 长 97分钟

◎导 演 奚仲文 Chung-Man Hai (id:1275027)

◎编 剧 岸西 Ivy Ho (id:1286710)

◎演 员 金城武 Takeshi Kaneshiro (id:1027883)

郭富城 Aaron Kwok (id:1041390)

陈慧琳 Kelly Chen (id:1050335)

何超仪 Josie Ho (id:1014212)

袁咏仪 Anita Yuen (id:1050693)

张国荣 Leslie Cheung (id:1003494)

张学友 Jacky Cheung (id:1012563)

钟甄 Jessica Chung (id:1319444)

谢志华 Chi-Wah Tse (id:1417403)

许月珍 Jojo Hui Yuet-chun (id:1302761)

韦伟 Wei Wei (id:1046368)

古巨基 Leo Ku (id:1023990)

曾志伟 Eric Tsang (id:1002862)

谢家慧 Doris Tse (id:1388882)

赵增熹 Tsang-Hei Chiu (id:1280692)

鲍德熹 Peter Pau (id:1294116)

David Pun Chi Wai David Pun Chi Wai (id:1294977)

邓汝好 Pat Tang Yu-Ho (id:1403989)

许月珍 Jojo Hui Yuet-chun (id:1302761)

◎简 介

陈家富(金城武饰)是个调琴师,有点木讷的他每日过着重复的生活。某日,他和游牧人(郭富城饰)相遇,游牧人的生活居无定所,不是泡妞就是赌马,好心的陈家富收留了他。

某日,他俩的楼上搬来了一个喜欢弹巴赫爱的协奏曲的女生莫敏儿(陈慧琳饰),陈家富对其一见钟情,但是却始终无法对其表达自己的好感,很快,莫敏儿被游牧人捷足先登,两人成了一对。

最后,陈家富讲了个“XO侠侣”的故事,原来世界上的每个人都在寻找他的莫敏儿,运气好的找到了,运气不好的穷尽一生都找不到。爱情就是如此。

◎获奖情况 (共6项)

第35届台北金马影展 (1998)

金马奖 最佳原创配乐(提名)

└──赵增熹 (id:1280692)

金马奖 最佳原创歌曲(提名)

第18届香港电影金像奖 (1999)

最佳摄影(提名)

└──鲍德熹 (id:1294116)

最佳美术指导(提名)

└──David Pun Chi Wai (id:1294977)

最佳服装造型设计(提名)

└──吴里璐 (id:1289270)

最佳原创电影音乐(提名)

└──赵增熹 (id:1280692)

  1. Video

  2. ID : 1

  3. Format : HEVC

  4. Format/Info : High Efficiency Video Coding

  5. Format profile : Main [email protected]@High

  6. HDR format : SMPTE ST 2086, HDR10 compatible

  7. Codec ID : V_MPEGH/ISO/HEVC

  8. Duration : 1 h 37 min

  9. Bit rate : 24.8 Mb/s

  10. Width : 3 840 pixels

  11. Height : 2 160 pixels

  12. Display aspect ratio : 16:9

  13. Frame rate mode : Constant

  14. Frame rate : 24.000 FPS

  15. Color space : YUV

  16. Chroma subsampling : 4:2:0 (Type 2)

  17. Bit depth : 10 bits

  18. Bits/(Pixel*Frame) : 0.124

  19. Stream size : 16.9 GiB (99%)

  20. Default : Yes

  21. Forced : No

  22. Color range : Limited

  23. Color primaries : BT.2020

  24. Transfer characteristics : PQ

  25. Matrix coefficients : BT.2020 non-constant

  26. Mastering display color primaries : BT.2020

  27. Mastering display luminance : min: 0.0050 cd/m2, max: 1000 cd/m2

  28. Maximum Content Light Level : 542 cd/m2

  29. Maximum Frame-Average Light Level : 227 cd/m2


  30. Audio

  31. ID : 2

  32. Format : AAC LC

  33. Format/Info : Advanced Audio Codec Low Complexity

  34. Codec ID : A_AAC-2

  35. Duration : 1 h 37 min

  36. Bit rate : 159 kb/s

  37. Channel(s) : 2 channels

  38. Channel layout : L R

  39. Sampling rate : 48.0 kHz

  40. Frame rate : 46.875 FPS (1024 SPF)

  41. Compression mode : Lossy

  42. Stream size : 111 MiB (1%)

  43. Language : Chinese

  44. Default : Yes

  45. Forced : No


  46. Text #1

  47. ID : 3

  48. Format : UTF-8

  49. Codec ID : S_TEXT/UTF8

  50. Codec ID/Info : UTF-8 Plain Text

  51. Duration : 1 h 33 min

  52. Bit rate : 34 b/s

  53. Count of elements : 833

  54. Stream size : 23.8 KiB (0%)

  55. Language : English

  56. Default : Yes

  57. Forced : No


  58. Text #2

  59. ID : 4

  60. Format : UTF-8

  61. Codec ID : S_TEXT/UTF8

  62. Codec ID/Info : UTF-8 Plain Text

  63. Duration : 1 h 31 min

  64. Bit rate : 28 b/s

  65. Count of elements : 797

  66. Stream size : 18.9 KiB (0%)

  67. Title : Simplified

  68. Language : Chinese

  69. Default : No

  70. Forced : No


  71. Text #3

  72. ID : 5

  73. Format : UTF-8

  74. Codec ID : S_TEXT/UTF8

  75. Codec ID/Info : UTF-8 Plain Text

  76. Duration : 1 h 31 min

  77. Bit rate : 28 b/s

  78. Count of elements : 797

  79. Stream size : 18.9 KiB (0%)

  80. Title : Traditional

  81. Language : Chinese

  82. Default : No

  83. Forced : No

复制代码

安娜玛德莲娜[国语音轨/中文字幕].Anna.Magdalena.1998.CHINESE.2160p.iT.WEB DL.x265.10bit.HDR.AAC2.0 MiON 17.00GB  港台电影  第2张 安娜玛德莲娜[国语音轨/中文字幕].Anna.Magdalena.1998.CHINESE.2160p.iT.WEB DL.x265.10bit.HDR.AAC2.0 MiON 17.00GB  港台电影  第3张 安娜玛德莲娜[国语音轨/中文字幕].Anna.Magdalena.1998.CHINESE.2160p.iT.WEB DL.x265.10bit.HDR.AAC2.0 MiON 17.00GB  港台电影  第4张



文件下载


除非特别注明,本文『安娜玛德莲娜[国语音轨/中文字幕].Anna.Magdalena.1998.CHINESE.2160p.iT.WEB-DL.x265.10bit.HDR.AAC2.0-MiON 17.00GB』来源于互联网机器人自动抓取,非本站原创。 浮游电影网不对本文拥有版权,如有侵犯,请联系邮箱:fuyouu#yandex.com[#换成@]投诉。我们会在15个工作日内删除。 但烦请转载时请标明出处:“本文转载于『浮游电影网』,原文地址:https://www.fuyouu.com/21778.html

评论吧骚年!

发表你的见解   

昵称*

E-mail*(建议输入,以便收到博主回复的提示邮件)

验证码*

您可以使用eMule或eMule Mod(Windows)、aMule(Win、Linux、Mac)等软件下载eD2k链接。。
eMule收藏集(.emulecollection)文件是您选中的所有链接的列表文件。eMule可以直接下载它们。
按住SHIFT键选择可以选中多个选择框。
可用文件名和大小选择器来选择文件。
文件名选择器帮您根据文件名称或后缀来选择文件。不分大小写。
符号使用:
和:空格( )、+
不包含:-
或:|
转义:一对英文引号("");
匹配开头:^
匹配结尾:$
例如:
选中所有名称中包含有“eMule”或“0.49c”字眼,但不包含有“exe”字眼的:emule|0.49c -exe
选中所有名称的开头是“eMule”,结尾是“0.49c”的:^emule 0.49c$
选中所有名称中带有“eMule 0.49c”的(必须是“eMule 0.49c”,中间没有别的字符,不能是“eMule fake 0.49c”),需要转义:"emule 0.49c"
大小选择器帮您根据文件大小选择文件。