当前位置: 首页 >> 欧美电影 >> 庄园夫人[中文字幕].Lady.of.the.Manor.2021.2160p.WEB-DL.DTS-HD.MA.5.1.DV.MKV.x265-DVSUX 19.42GB >> 正文

庄园夫人[中文字幕].Lady.of.the.Manor.2021.2160p.WEB-DL.DTS-HD.MA.5.1.DV.MKV.x265-DVSUX 19.42GB

2022年04月29日 00:53:25     电影发布:来源于网络     电影分类:欧美电影     评论(0)    

庄园夫人[中文字幕].Lady.of.the.Manor.2021.2160p.WEB DL.DTS HD.MA.5.1.DV.MKV.x265 DVSUX 19.42GB  欧美电影  第1张

◎译 名 庄园夫人 / 女领主

◎片 名 Lady of the Manor

◎年 代 2021

◎产 地 美国

◎类 别 喜剧

◎语 言 英语

◎上映日期 2021-06-10(加斯帕里利亚国际电影节) / 2021-09-17(美国)

◎IMDb链接 https://www.imdb.com/title/tt11826450/

◎豆瓣评分 5.6/10 (197人评价)

◎豆瓣链接 https://movie.douban.com/subject/35072572/

◎片 长 96分钟

◎导 演 贾斯汀·朗 Justin Long (id:1017904)

Christian Long (id:1236403)

◎编 剧 贾斯汀·朗 Justin Long (id:1017904)

Christian Long (id:1236403)

◎演 员 梅兰妮·林斯基 Melanie Lynskey (id:1044729)

朱迪·格雷尔 Judy Greer (id:1009256)

贾斯汀·朗 Justin Long (id:1017904)

瑞恩·菲利普 Ryan Phillippe (id:1040999)

路易斯·古兹曼 Luis Guzmán (id:1049639)

帕特里克·杜菲 Patrick Duffy (id:1031953)

◎简 介

在这部超搞笑的兄弟喜剧中,过去和现在发生了碰撞,吸毒的懒鬼汉娜(梅兰妮·林斯基饰)被雇来扮演沃兹沃斯夫人(朱迪·格里尔饰),一位死于1875年在沃兹沃斯庄园旅行的南方美女。汉娜,一团糟,认为她可以假装——直到沃兹沃斯夫人的鬼魂出现!在这部由贾斯汀·朗和瑞安·菲利普联袂主演的搞笑电影中,沃兹沃斯夫人告诉汉娜,是时候改变她狂野的生活方式了——她会一直缠着汉娜直到她改变。

  1. Video

  2. ID : 1

  3. Format : HEVC

  4. Format/Info : High Efficiency Video Coding

  5. Format profile : Main [email protected]@High

  6. HDR format : Dolby Vision, Version 1.0, dvhe.05.06, BL+RPU

  7. Codec ID : V_MPEGH/ISO/HEVC

  8. Duration : 1 h 36 min

  9. Bit rate : 24.7 Mb/s

  10. Width : 3 832 pixels

  11. Height : 2 068 pixels

  12. Display aspect ratio : 1.85:1

  13. Frame rate mode : Constant

  14. Frame rate : 23.976 (23976/1000/53354) FPS

  15. Color space : YUV

  16. Chroma subsampling : 4:2:0

  17. Bit depth : 10 bits

  18. Bits/(Pixel*Frame) : 0.130

  19. Stream size : 16.7 GiB (86%)

  20. Default : Yes

  21. Forced : No


  22. Audio #1

  23. ID : 2

  24. Format : DTS XLL

  25. Format/Info : Digital Theater Systems

  26. Commercial name : DTS-HD Master Audio

  27. Codec ID : A_DTS

  28. Duration : 1 h 36 min

  29. Bit rate mode : Variable

  30. Bit rate : 3 673 kb/s

  31. Channel(s) : 6 channels

  32. Channel layout : C L R Ls Rs LFE

  33. Sampling rate : 48.0 kHz

  34. Frame rate : 93.750 FPS (512 SPF)

  35. Bit depth : 24 bits

  36. Compression mode : Lossless

  37. Delay relative to video : 3 ms

  38. Stream size : 2.48 GiB (13%)

  39. Title : DTS-HD MA 5.1

  40. Language : English

  41. Default : Yes

  42. Forced : No


  43. Audio #2

  44. ID : 3

  45. Format : AC-3

  46. Format/Info : Audio Coding 3

  47. Commercial name : Dolby Digital

  48. Codec ID : A_AC3

  49. Duration : 1 h 36 min

  50. Bit rate mode : Constant

  51. Bit rate : 384 kb/s

  52. Channel(s) : 6 channels

  53. Channel layout : L R C LFE Ls Rs

  54. Sampling rate : 48.0 kHz

  55. Frame rate : 31.250 FPS (1536 SPF)

  56. Compression mode : Lossy

  57. Stream size : 265 MiB (1%)

  58. Language : English

  59. Service kind : Complete Main

  60. Default : Yes

  61. Forced : No


  62. Text #1

  63. ID : 4

  64. Format : UTF-8

  65. Codec ID : S_TEXT/UTF8

  66. Codec ID/Info : UTF-8 Plain Text

  67. Duration : 1 h 35 min

  68. Bit rate : 86 b/s

  69. Count of elements : 1640

  70. Stream size : 61.0 KiB (0%)

  71. Title : English CC

  72. Language : English

  73. Default : Yes

  74. Forced : No


  75. Text #2

  76. ID : 5

  77. Format : UTF-8

  78. Codec ID : S_TEXT/UTF8

  79. Codec ID/Info : UTF-8 Plain Text

  80. Duration : 1 h 35 min

  81. Bit rate : 119 b/s

  82. Count of elements : 1481

  83. Stream size : 83.6 KiB (0%)

  84. Title : Arabic

  85. Language : Arabic

  86. Default : No

  87. Forced : No


  88. Text #3

  89. ID : 6

  90. Format : UTF-8

  91. Codec ID : S_TEXT/UTF8

  92. Codec ID/Info : UTF-8 Plain Text

  93. Duration : 1 h 35 min

  94. Bit rate : 69 b/s

  95. Count of elements : 1721

  96. Stream size : 48.6 KiB (0%)

  97. Title : Chinese Mandarin Chinese Traditional

  98. Language : Chinese

  99. Default : No

  100. Forced : No


  101. Text #4

  102. ID : 7

  103. Format : UTF-8

  104. Codec ID : S_TEXT/UTF8

  105. Codec ID/Info : UTF-8 Plain Text

  106. Duration : 1 h 35 min

  107. Bit rate : 68 b/s

  108. Count of elements : 1414

  109. Stream size : 47.7 KiB (0%)

  110. Title : Danish

  111. Language : Danish

  112. Default : No

  113. Forced : No


  114. Text #5

  115. ID : 8

  116. Format : UTF-8

  117. Codec ID : S_TEXT/UTF8

  118. Codec ID/Info : UTF-8 Plain Text

  119. Duration : 1 h 35 min

  120. Bit rate : 78 b/s

  121. Count of elements : 1604

  122. Stream size : 54.7 KiB (0%)

  123. Title : German

  124. Language : German

  125. Default : No

  126. Forced : No


  127. Text #6

  128. ID : 9

  129. Format : UTF-8

  130. Codec ID : S_TEXT/UTF8

  131. Codec ID/Info : UTF-8 Plain Text

  132. Duration : 1 h 35 min

  133. Bit rate : 70 b/s

  134. Count of elements : 1680

  135. Stream size : 49.1 KiB (0%)

  136. Title : Spanish Latin American

  137. Language : Spanish

  138. Default : No

  139. Forced : No


  140. Text #7

  141. ID : 10

  142. Format : UTF-8

  143. Codec ID : S_TEXT/UTF8

  144. Codec ID/Info : UTF-8 Plain Text

  145. Duration : 1 h 35 min

  146. Bit rate : 77 b/s

  147. Count of elements : 1628

  148. Stream size : 54.3 KiB (0%)

  149. Title : Spanish European

  150. Language : Spanish

  151. Default : No

  152. Forced : No


  153. Text #8

  154. ID : 11

  155. Format : UTF-8

  156. Codec ID : S_TEXT/UTF8

  157. Codec ID/Info : UTF-8 Plain Text

  158. Duration : 1 h 35 min

  159. Bit rate : 69 b/s

  160. Count of elements : 1414

  161. Stream size : 48.4 KiB (0%)

  162. Title : Finnish

  163. Language : Finnish

  164. Default : No

  165. Forced : No


  166. Text #9

  167. ID : 12

  168. Format : UTF-8

  169. Codec ID : S_TEXT/UTF8

  170. Codec ID/Info : UTF-8 Plain Text

  171. Duration : 1 h 35 min

  172. Bit rate : 69 b/s

  173. Count of elements : 1592

  174. Stream size : 48.6 KiB (0%)

  175. Title : French European

  176. Language : French

  177. Default : No

  178. Forced : No


  179. Text #10

  180. ID : 13

  181. Format : UTF-8

  182. Codec ID : S_TEXT/UTF8

  183. Codec ID/Info : UTF-8 Plain Text

  184. Duration : 1 h 35 min

  185. Bit rate : 74 b/s

  186. Count of elements : 1617

  187. Stream size : 52.1 KiB (0%)

  188. Title : Italian

  189. Language : Italian

  190. Default : No

  191. Forced : No


  192. Text #11

  193. ID : 14

  194. Format : UTF-8

  195. Codec ID : S_TEXT/UTF8

  196. Codec ID/Info : UTF-8 Plain Text

  197. Duration : 1 h 35 min

  198. Bit rate : 63 b/s

  199. Count of elements : 1556

  200. Stream size : 44.5 KiB (0%)

  201. Title : Japanese

  202. Language : Japanese

  203. Default : No

  204. Forced : No


  205. Text #12

  206. ID : 15

  207. Format : UTF-8

  208. Codec ID : S_TEXT/UTF8

  209. Codec ID/Info : UTF-8 Plain Text

  210. Duration : 1 h 35 min

  211. Bit rate : 79 b/s

  212. Count of elements : 1722

  213. Stream size : 55.8 KiB (0%)

  214. Title : Korean

  215. Language : Korean

  216. Default : No

  217. Forced : No


  218. Text #13

  219. ID : 16

  220. Format : UTF-8

  221. Codec ID : S_TEXT/UTF8

  222. Codec ID/Info : UTF-8 Plain Text

  223. Duration : 1 h 35 min

  224. Bit rate : 71 b/s

  225. Count of elements : 1232

  226. Stream size : 49.9 KiB (0%)

  227. Title : Dutch

  228. Language : Dutch

  229. Default : No

  230. Forced : No


  231. Text #14

  232. ID : 17

  233. Format : UTF-8

  234. Codec ID : S_TEXT/UTF8

  235. Codec ID/Info : UTF-8 Plain Text

  236. Duration : 1 h 35 min

  237. Bit rate : 74 b/s

  238. Count of elements : 1414

  239. Stream size : 52.2 KiB (0%)

  240. Title : Norwegian

  241. Language : Norwegian

  242. Default : No

  243. Forced : No


  244. Text #15

  245. ID : 18

  246. Format : UTF-8

  247. Codec ID : S_TEXT/UTF8

  248. Codec ID/Info : UTF-8 Plain Text

  249. Duration : 1 h 35 min

  250. Bit rate : 61 b/s

  251. Count of elements : 1356

  252. Stream size : 43.2 KiB (0%)

  253. Title : Polish

  254. Language : Polish

  255. Default : No

  256. Forced : No


  257. Text #16

  258. ID : 19

  259. Format : UTF-8

  260. Codec ID : S_TEXT/UTF8

  261. Codec ID/Info : UTF-8 Plain Text

  262. Duration : 1 h 35 min

  263. Bit rate : 69 b/s

  264. Count of elements : 1576

  265. Stream size : 48.4 KiB (0%)

  266. Title : Portuguese Brazilian

  267. Language : Portuguese

  268. Default : No

  269. Forced : No


  270. Text #17

  271. ID : 20

  272. Format : UTF-8

  273. Codec ID : S_TEXT/UTF8

  274. Codec ID/Info : UTF-8 Plain Text

  275. Duration : 1 h 35 min

  276. Bit rate : 75 b/s

  277. Count of elements : 1556

  278. Stream size : 53.1 KiB (0%)

  279. Title : Portuguese European

  280. Language : Portuguese

  281. Default : No

  282. Forced : No


  283. Text #18

  284. ID : 21

  285. Format : UTF-8

  286. Codec ID : S_TEXT/UTF8

  287. Codec ID/Info : UTF-8 Plain Text

  288. Duration : 1 h 35 min

  289. Bit rate : 121 b/s

  290. Count of elements : 1763

  291. Stream size : 84.9 KiB (0%)

  292. Title : Russian

  293. Language : Russian

  294. Default : No

  295. Forced : No


  296. Text #19

  297. ID : 22

  298. Format : UTF-8

  299. Codec ID : S_TEXT/UTF8

  300. Codec ID/Info : UTF-8 Plain Text

  301. Duration : 1 h 35 min

  302. Bit rate : 73 b/s

  303. Count of elements : 1411

  304. Stream size : 51.6 KiB (0%)

  305. Title : Swedish

  306. Language : Swedish

  307. Default : No

  308. Forced : No


  309. Text #20

  310. ID : 23

  311. Format : UTF-8

  312. Codec ID : S_TEXT/UTF8

  313. Codec ID/Info : UTF-8 Plain Text

  314. Duration : 1 h 35 min

  315. Bit rate : 72 b/s

  316. Count of elements : 1756

  317. Stream size : 50.8 KiB (0%)

  318. Title : Turkish

  319. Language : Turkish

  320. Default : No

  321. Forced : No


  322. Text #21

  323. ID : 24

  324. Format : UTF-8

  325. Codec ID : S_TEXT/UTF8

  326. Codec ID/Info : UTF-8 Plain Text

  327. Duration : 1 h 35 min

  328. Bit rate : 83 b/s

  329. Count of elements : 1719

  330. Stream size : 58.4 KiB (0%)

  331. Title : Vietnamese

  332. Language : Vietnamese

  333. Default : No

  334. Forced : No


  335. Menu

  336. 00:00:00.000 : en:Chapter 01

  337. 00:01:53.000 : en:Chapter 02

  338. 00:10:54.000 : en:Chapter 03

  339. 00:19:11.000 : en:Chapter 04

  340. 00:29:56.000 : en:Chapter 05

  341. 00:40:32.000 : en:Chapter 06

  342. 00:51:22.000 : en:Chapter 07

  343. 01:01:59.000 : en:Chapter 08

  344. 01:12:59.000 : en:Chapter 09

  345. 01:20:33.000 : en:Chapter 10

  346. 01:33:14.000 : en:Chapter 11

复制代码

庄园夫人[中文字幕].Lady.of.the.Manor.2021.2160p.WEB DL.DTS HD.MA.5.1.DV.MKV.x265 DVSUX 19.42GB  欧美电影  第2张 庄园夫人[中文字幕].Lady.of.the.Manor.2021.2160p.WEB DL.DTS HD.MA.5.1.DV.MKV.x265 DVSUX 19.42GB  欧美电影  第3张 庄园夫人[中文字幕].Lady.of.the.Manor.2021.2160p.WEB DL.DTS HD.MA.5.1.DV.MKV.x265 DVSUX 19.42GB  欧美电影  第4张



文件下载


除非特别注明,本文『庄园夫人[中文字幕].Lady.of.the.Manor.2021.2160p.WEB-DL.DTS-HD.MA.5.1.DV.MKV.x265-DVSUX 19.42GB』来源于互联网机器人自动抓取,非本站原创。 浮游电影网不对本文拥有版权,如有侵犯,请联系邮箱:fuyouu#yandex.com[#换成@]投诉。我们会在15个工作日内删除。 但烦请转载时请标明出处:“本文转载于『浮游电影网』,原文地址:https://www.fuyouu.com/21777.html

评论吧骚年!

发表你的见解   

昵称*

E-mail*(建议输入,以便收到博主回复的提示邮件)

验证码*

您可以使用eMule或eMule Mod(Windows)、aMule(Win、Linux、Mac)等软件下载eD2k链接。。
eMule收藏集(.emulecollection)文件是您选中的所有链接的列表文件。eMule可以直接下载它们。
按住SHIFT键选择可以选中多个选择框。
可用文件名和大小选择器来选择文件。
文件名选择器帮您根据文件名称或后缀来选择文件。不分大小写。
符号使用:
和:空格( )、+
不包含:-
或:|
转义:一对英文引号("");
匹配开头:^
匹配结尾:$
例如:
选中所有名称中包含有“eMule”或“0.49c”字眼,但不包含有“exe”字眼的:emule|0.49c -exe
选中所有名称的开头是“eMule”,结尾是“0.49c”的:^emule 0.49c$
选中所有名称中带有“eMule 0.49c”的(必须是“eMule 0.49c”,中间没有别的字符,不能是“eMule fake 0.49c”),需要转义:"emule 0.49c"
大小选择器帮您根据文件大小选择文件。