当前位置: 首页 >> 海外电影 >> 美味关系[中英字幕].Kongsi.Raya.2022.1080p.Netflix.WEB-DL.H264.DDP2.0-HDBWEB 5.06GB >> 正文

美味关系[中英字幕].Kongsi.Raya.2022.1080p.Netflix.WEB-DL.H264.DDP2.0-HDBWEB 5.06GB

2022年04月29日 00:52:25     电影发布:来源于网络     电影分类:海外电影     评论(0)    

◎译 名 美味关系 / Kongsi Raya

◎片 名 Kongsi Raya

◎年 代 2022

◎产 地 马来西亚

◎语 言 汉语普通话 / 粤语 / 马来语

◎上映日期 2022-02-03(马来西亚)

◎IMDb链接 https://www.imdb.com/title/tt16806990/

◎豆瓣链接 https://movie.douban.com/subject/35764157/

◎片 长 112分钟

◎导 演 陈立谦 Teddy Chin (id:1340717)

◎演 员 李伟燊 Wilson Lee (id:1415114)

Erra Fazira Erra Fazira (id:1084171)

王爱玲 Ai Leng Ong (id:1336302)

陈立谦 Teddy Chin (id:1340717)

◎简 介

这部电影讲述了一对情侣Jack和Sharifah的爱情故事。两家庭都是美食世家,双方爸爸都是厨师。Sharifah是马来人,电视台节目制作人,她父亲Rahim是电视台烹饪节目的马来名厨,两父女合作无间。而Jack是华人,一名大厨师,他的父亲“龙哥”是酒楼老板大厨,经营祖传三代的旧式茶楼,一心培植Jack为酒楼继承人。但是,二人的爱情因为是异族的关系,遭受双方爸爸的不谅解和强烈反对。两个名厨父亲互看对方不顺眼,更是闹到两个父亲决定在电视台美食擂台大赛一决胜负,并以美食节目主持和异族恋作为赌注。父亲们是否能放下文化偏见,而Jack和Sharifah的爱情又能得到家人的支持吗?

  1. ##### MediaInfo ######

  2. General

  3. Unique ID : 282690181773911972272006222150191936603 (0xD4AC260B0F673EAAC9374DEA14ADF45B)

  4. Complete name : 美味关系.Kongsi.Raya.2022.1080p.Netflix.WEB-DL.H264.DDP2.0-HDBWEB.mkv

  5. Format : Matroska

  6. Format version : Version 4

  7. File size : 5.05 GiB

  8. Duration : 1 h 41 min

  9. Overall bit rate mode : Variable

  10. Overall bit rate : 7 112 kb/s

  11. Movie name : 薑味關係

  12. Description : 大廚與電視美食節目製作人墜入愛河,無疑是烹飪界的天作之合,但接著兩人結怨多時的父親竟向彼此下戰帖,準備以廚藝一決勝負。

  13. Writing application : Lavf58.76.100

  14. Writing library : Lavf58.76.100

  15. ErrorDetectionType : Per level 1

  16. DATE : 2020


  17. Video

  18. ID : 1

  19. Format : AVC

  20. Format/Info : Advanced Video Codec

  21. Format profile : [email protected]

  22. Format settings : CABAC / 4 Ref Frames

  23. Format settings, CABAC : Yes

  24. Format settings, Reference frames : 4 frames

  25. Codec ID : V_MPEG4/ISO/AVC

  26. Duration : 1 h 41 min

  27. Bit rate mode : Variable

  28. Bit rate : 6 842 kb/s

  29. Maximum bit rate : 20.0 Mb/s

  30. Width : 1 920 pixels

  31. Height : 1 080 pixels

  32. Display aspect ratio : 16:9

  33. Frame rate mode : Constant

  34. Frame rate : 24.000 FPS

  35. Color space : YUV

  36. Chroma subsampling : 4:2:0

  37. Bit depth : 8 bits

  38. Scan type : Progressive

  39. Bits/(Pixel*Frame) : 0.137

  40. Stream size : 4.86 GiB (96%)

  41. Title : 264:moovts=-1:fps=24:deps:[email protected]

  42. Writing library : x264 core 148 r2727 7d026e8

  43. Encoding settings : cabac=1 / ref=4 / deblock=1:0:0 / analyse=0x3:0x111 / me=umh / subme=10 / psy=1 / psy_rd=1.00:0.00 / mixed_ref=1 / me_range=120 / chroma_me=1 / trellis=2 / 8x8dct=1 / cqm=0 / deadzone=21,11 / fast_pskip=1 / chroma_qp_offset=-2 / threads=8 / lookahead_threads=2 / sliced_threads=0 / nr=0 / decimate=1 / interlaced=0 / NTMzNTQ= / bluray_compat=0 / stitchable=1 / constrained_intra=0 / bframes=16 / b_pyramid=2 / b_adapt=2 / b_bias=0 / direct=3 / weightb=1 / open_gop=0 / weightp=2 / keyint=240 / keyint_min=121 / scenecut=0 / intra_refresh=0 / rc_lookahead=240 / rc=crf / mbtree=1 / crf=20.0 / qcomp=0.50 / qpmin=6 / qpmax=51 / qpstep=4 / vbv_maxrate=20000 / vbv_bufsize=25000 / crf_max=0.0 / nal_hrd=vbr / filler=0 / NTMzNTQ=LmsMAP37EqsCpk / ip_ratio=1.40 / aq=1:0.80

  44. Default : Yes

  45. Forced : No

  46. VENDOR_ID : [0][0][0][0]


  47. Audio

  48. ID : 2

  49. Format : E-AC-3

  50. Format/Info : Enhanced AC-3

  51. Commercial name : Dolby Digital Plus

  52. Codec ID : A_EAC3

  53. Duration : 1 h 41 min

  54. Bit rate mode : Constant

  55. Bit rate : 128 kb/s

  56. Channel(s) : 2 channels

  57. Channel layout : L R

  58. Sampling rate : 48.0 kHz

  59. Frame rate : 31.250 FPS (1536 SPF)

  60. Bit depth : 32 bits

  61. Compression mode : Lossy

  62. Stream size : 93.2 MiB (2%)

  63. Title : 馬來文 [原始]

  64. Language : Malay

  65. Service kind : Complete Main

  66. Default : Yes

  67. Forced : No

  68. VENDOR_ID : [0][0][0][0]


  69. Text #1

  70. ID : 3

  71. Format : UTF-8

  72. Codec ID : S_TEXT/UTF8

  73. Codec ID/Info : UTF-8 Plain Text

  74. Duration : 1 h 41 min

  75. Title : 英文

  76. Writing library : Lavc58.134.100 srt

  77. Language : English

  78. Default : Yes

  79. Forced : No


  80. Text #2

  81. ID : 4

  82. Format : UTF-8

  83. Codec ID : S_TEXT/UTF8

  84. Codec ID/Info : UTF-8 Plain Text

  85. Duration : 1 h 41 min

  86. Title : 印尼語

  87. Writing library : Lavc58.134.100 srt

  88. Language : Indonesian

  89. Default : No

  90. Forced : No


  91. Text #3

  92. ID : 5

  93. Format : UTF-8

  94. Codec ID : S_TEXT/UTF8

  95. Codec ID/Info : UTF-8 Plain Text

  96. Duration : 1 h 41 min

  97. Title : 韓文

  98. Writing library : Lavc58.134.100 srt

  99. Language : Korean

  100. Default : No

  101. Forced : No


  102. Text #4

  103. ID : 6

  104. Format : UTF-8

  105. Codec ID : S_TEXT/UTF8

  106. Codec ID/Info : UTF-8 Plain Text

  107. Duration : 1 h 41 min

  108. Title : 馬來文

  109. Writing library : Lavc58.134.100 srt

  110. Language : Malay

  111. Default : No

  112. Forced : No


  113. Text #5

  114. ID : 7

  115. Format : UTF-8

  116. Codec ID : S_TEXT/UTF8

  117. Codec ID/Info : UTF-8 Plain Text

  118. Duration : 1 h 41 min

  119. Title : 泰文

  120. Writing library : Lavc58.134.100 srt

  121. Language : Thai

  122. Default : No

  123. Forced : No


  124. Text #6

  125. ID : 8

  126. Format : UTF-8

  127. Codec ID : S_TEXT/UTF8

  128. Codec ID/Info : UTF-8 Plain Text

  129. Duration : 1 h 41 min

  130. Title : 越南文

  131. Writing library : Lavc58.134.100 srt

  132. Language : Vietnamese

  133. Default : No

  134. Forced : No


  135. Text #7

  136. ID : 9

  137. Format : UTF-8

  138. Codec ID : S_TEXT/UTF8

  139. Codec ID/Info : UTF-8 Plain Text

  140. Duration : 1 h 41 min

  141. Title : 簡體中文

  142. Writing library : Lavc58.134.100 srt

  143. Language : Chinese

  144. Default : No

  145. Forced : No


  146. Text #8

  147. ID : 10

  148. Format : UTF-8

  149. Codec ID : S_TEXT/UTF8

  150. Codec ID/Info : UTF-8 Plain Text

  151. Duration : 1 h 41 min

  152. Title : 繁體中文

  153. Writing library : Lavc58.134.100 srt

  154. Language : Chinese

  155. Default : No

  156. Forced : No




复制代码



文件下载


除非特别注明,本文『美味关系[中英字幕].Kongsi.Raya.2022.1080p.Netflix.WEB-DL.H264.DDP2.0-HDBWEB 5.06GB』来源于互联网机器人自动抓取,非本站原创。 浮游电影网不对本文拥有版权,如有侵犯,请联系邮箱:fuyouu#yandex.com[#换成@]投诉。我们会在15个工作日内删除。 但烦请转载时请标明出处:“本文转载于『浮游电影网』,原文地址:https://www.fuyouu.com/21776.html

评论吧骚年!

发表你的见解   

昵称*

E-mail*(建议输入,以便收到博主回复的提示邮件)

验证码*

您可以使用eMule或eMule Mod(Windows)、aMule(Win、Linux、Mac)等软件下载eD2k链接。。
eMule收藏集(.emulecollection)文件是您选中的所有链接的列表文件。eMule可以直接下载它们。
按住SHIFT键选择可以选中多个选择框。
可用文件名和大小选择器来选择文件。
文件名选择器帮您根据文件名称或后缀来选择文件。不分大小写。
符号使用:
和:空格( )、+
不包含:-
或:|
转义:一对英文引号("");
匹配开头:^
匹配结尾:$
例如:
选中所有名称中包含有“eMule”或“0.49c”字眼,但不包含有“exe”字眼的:emule|0.49c -exe
选中所有名称的开头是“eMule”,结尾是“0.49c”的:^emule 0.49c$
选中所有名称中带有“eMule 0.49c”的(必须是“eMule 0.49c”,中间没有别的字符,不能是“eMule fake 0.49c”),需要转义:"emule 0.49c"
大小选择器帮您根据文件大小选择文件。