当前位置: 首页 >> 港台电影 >> 灵幻至尊[国语配音].Spiritual.Trinity.1991.2160p.WEB-DL.H265.AAC-HDBWEB 3.85GB >> 正文

灵幻至尊[国语配音].Spiritual.Trinity.1991.2160p.WEB-DL.H265.AAC-HDBWEB 3.85GB

2022年04月29日 00:47:44     电影发布:来源于网络     电影分类:港台电影     评论(0)    

◎译 名 灵幻至尊 / 人鬼神 / Spiritual Trinity

◎片 名 靈幻至尊

◎年 代 1991

◎产 地 中国香港

◎类 别 恐怖 / 奇幻

◎语 言 粤语

◎上映日期 1991-09-26

◎IMDb链接 https://www.imdb.com/title/tt0102772/

◎豆瓣评分 7.1/10 (9047人评价)

◎豆瓣链接 https://movie.douban.com/subject/1479864/

◎片 长 93 分钟

◎演 员 林正英 Ching-Ying Lam (id:1016823)

郑则仕 Kent Cheng (id:1019278)

黎姿 Gigi Lai (id:1028208)

符钰晶 Bonnie Fu (id:1324690)

金十二 Sap-Yee Gam (id:1356003)

王小凤 Pauline Wong (id:1275089)

韩春 Chun Han (id:1418677)

郑则仕 Kent Cheng (id:1019278)

黄志明 Wong Chi-Ming (id:1398895)

李炯佳 Gwing-Gai Lee (id:1378426)

◎简 介

茅山弟子傲天龙(林正英 饰)与大黄(郑则士 饰)同时爱上了师傅的掌上明珠梦梦,师傅临终前设局考验二人谁更真心,大黄用计赢得了师傅的信任。虽然梦梦倾心天龙,无奈父命难为,天龙于是愤然出走。一晃十八年过去了,大黄和梦梦的儿子连高(金少龙 饰)已经长成英俊少年,而天龙的女儿凝红(黎姿 饰)也成年。天龙父女俩这天回家乡探亲,半途上遇到红袍火鬼为祸人间。天龙费尽九牛二虎之力将其收伏,关在鬼笼内。

回到家乡,大黄和天龙两师兄弟心里还是有隔阂,互相敌视。连高无意中放出了火鬼,此时的火鬼法力大增,天龙和大黄都已无法独力应付。为了对付火鬼,二人终于抛开成见,再次合作。

  1. ##### MediaInfo ######

  2. General

  3. Complete name : 灵幻至尊.Spiritual.Trinity.1991.2160p.WEB-DL.H265.AAC-HDBWEB.mp4

  4. Format : MPEG-4

  5. Format profile : Base Media

  6. Codec ID : isom (isom/iso2/mp41)

  7. File size : 3.85 GiB

  8. Duration : 1 h 29 min

  9. Overall bit rate mode : Variable

  10. Overall bit rate : 6 153 kb/s

  11. Writing application : Lavf58.17.103


  12. Video

  13. ID : 1

  14. Format : HEVC

  15. Format/Info : High Efficiency Video Coding

  16. Format profile : [email protected]@Main

  17. Codec ID : hev1

  18. Codec ID/Info : High Efficiency Video Coding

  19. Duration : 1 h 29 min

  20. Bit rate : 5 957 kb/s

  21. Width : 3 840 pixels

  22. Height : 2 160 pixels

  23. Display aspect ratio : 16:9

  24. Frame rate mode : Constant

  25. Frame rate : 25.000 FPS

  26. Color space : YUV

  27. Chroma subsampling : 4:2:0

  28. Bit depth : 8 bits

  29. Bits/(Pixel*Frame) : 0.029

  30. Stream size : 3.73 GiB (97%)

  31. Codec configuration box : hvcC


  32. Audio

  33. ID : 2

  34. Format : AAC LC

  35. Format/Info : Advanced Audio Codec Low Complexity

  36. Codec ID : mp4a-40-2

  37. Duration : 1 h 29 min

  38. Bit rate mode : Variable

  39. Bit rate : 192 kb/s

  40. Channel(s) : 2 channels

  41. Channel layout : L R

  42. Sampling rate : 44.1 kHz

  43. Frame rate : 43.066 FPS (1024 SPF)

  44. Compression mode : Lossy

  45. Stream size : 122 MiB (3%)

  46. Default : Yes

  47. Alternate group : 1




复制代码



文件下载


除非特别注明,本文『灵幻至尊[国语配音].Spiritual.Trinity.1991.2160p.WEB-DL.H265.AAC-HDBWEB 3.85GB』来源于互联网机器人自动抓取,非本站原创。 浮游电影网不对本文拥有版权,如有侵犯,请联系邮箱:fuyouu#yandex.com[#换成@]投诉。我们会在15个工作日内删除。 但烦请转载时请标明出处:“本文转载于『浮游电影网』,原文地址:https://www.fuyouu.com/21775.html

评论吧骚年!

发表你的见解   

昵称*

E-mail*(建议输入,以便收到博主回复的提示邮件)

验证码*

您可以使用eMule或eMule Mod(Windows)、aMule(Win、Linux、Mac)等软件下载eD2k链接。。
eMule收藏集(.emulecollection)文件是您选中的所有链接的列表文件。eMule可以直接下载它们。
按住SHIFT键选择可以选中多个选择框。
可用文件名和大小选择器来选择文件。
文件名选择器帮您根据文件名称或后缀来选择文件。不分大小写。
符号使用:
和:空格( )、+
不包含:-
或:|
转义:一对英文引号("");
匹配开头:^
匹配结尾:$
例如:
选中所有名称中包含有“eMule”或“0.49c”字眼,但不包含有“exe”字眼的:emule|0.49c -exe
选中所有名称的开头是“eMule”,结尾是“0.49c”的:^emule 0.49c$
选中所有名称中带有“eMule 0.49c”的(必须是“eMule 0.49c”,中间没有别的字符,不能是“eMule fake 0.49c”),需要转义:"emule 0.49c"
大小选择器帮您根据文件大小选择文件。