当前位置: 首页 >> 欧美电影 >> 十二猴子[简繁英字幕].Twelve.Monkeys.1995.UHD.BluRay.2160p.DTS-HD.MA5.1.x265.10bit.HDR-ALT 27.97GB >> 正文

十二猴子[简繁英字幕].Twelve.Monkeys.1995.UHD.BluRay.2160p.DTS-HD.MA5.1.x265.10bit.HDR-ALT 27.97GB

2022年04月29日 00:45:10     电影发布:来源于网络     电影分类:欧美电影     评论(0)    

◎译 名 十二猴子 / 未来总动员(台) / 12猴子 / 十二猴子军 / 十二只猴子

◎片 名 Twelve Monkeys

◎年 代 1995

◎产 地 美国

◎类 别 科幻 / 悬疑 / 惊悚

◎语 言 英语 / 法语

◎上映日期 1995-12-08(纽约首映) / 1996-01-05(美国)

◎IMDb链接 https://www.imdb.com/title/tt0114746/

◎豆瓣评分 8.2/10 (208700人评价)

◎豆瓣链接 https://movie.douban.com/subject/1298744/

◎片 长 129分钟

◎导 演 特瑞·吉列姆 Terry Gilliam (id:1047980)

◎编 剧 克里斯·马克 Chris Marker (id:1025376)

大卫·韦伯·皮普尔斯 David Webb Peoples (id:1294259)

珍妮特·皮普尔斯 Janet Peoples (id:1294261)

◎演 员 布鲁斯·威利斯 Bruce Willis (id:1010509)

玛德琳·斯托 Madeleine Stowe (id:1022636)

布拉德·皮特 Brad Pitt (id:1054452)

克里斯托弗·普卢默 Christopher Plummer (id:1036321)

大卫·摩斯 David Morse (id:1027810)

乔恩·塞达 Jon Seda (id:1027233)

迈克尔·禅斯 Michael Chance (id:1069393)

弗农·坎贝尔 Vernon Campbell (id:1075486)

西蒙·琼斯 Simon Jones (id:1105193)

Ernest Abuba Ernest Abuba (id:1055225)

Irma St. Paule Irma St. Paule (id:1159662)

乔伊佩里洛 Joey Perillo (id:1131026)

比尔·雷蒙德 Bill Raymond (id:1363632)

安妮·高登 Annie Golden (id:1092649)

罗杰·普拉特 Roger Pratt (id:1032441)

户田惠子 Keiko Toda (id:1051741)

理查德·斯坦利 Richard Stanley (id:1152390)

克里斯托弗·米洛尼 Christopher Meloni (id:1000052)

Aaron Michael Lacey Aaron Michael Lacey (id:1019306)

马特·罗斯 Matt Ross (id:1014057)

弗兰克·乔辛 Frank Gorshin (id:1002806)

斯蒂芬·布吉格沃特 Stephen Bridgewater (id:1050503)

菲利斯·皮雷 Felix Pire (id:1131003)

Julie Mabry Julie Mabry (id:1123448)

Yuri Korchenko Yuri Korchenko (id:1106101)

Stan Kang Stan Kang (id:1106011)

查克·杰弗里斯 Chuck Jeffreys (id:1103654)

Adam Hatley Adam Hatley (id:1091872)

Lenny Daniels Lenny Daniels (id:1089769)

丽莎盖伊·汉密尔顿 LisaGay Hamilton (id:1000303)

劳埃德·菲利普斯 Lloyd Phillips (id:1294461)

罗伯特·考斯伯格 Robert Kosberg (id:1037534)

加里·莱温索恩 Gary Levinsohn (id:1289901)

Robert Cavallo Robert Cavallo (id:1280319)

查尔斯·罗文 Charles Roven (id:1023082)

保罗·巴克马斯特 Paul Buckmaster (id:1279563)

罗杰·普拉特 Roger Pratt (id:1032441)

米克·奥兹利 Mick Audsley (id:1277571)

玛格莉·辛姆金 Margery Simkin (id:1297613)

杰弗里·比克罗夫特 Jeffrey Beecroft (id:1278211)

克里斯皮安·萨利斯 Crispian Sallis (id:1141089)

William Ladd Skinner William Ladd Skinner (id:1297738)

朱莉·维斯 Julie Weiss (id:1300651)

克丝缇·碧芙丽绮 Christine Beveridge (id:1278568)

Allen Weisinger Allen Weisinger (id:1300632)

肯特·休斯顿 Kent Houston (id:1286980)

Ditch Doy Ditch Doy (id:1282677)

理查德·贝恩 Richard Bain (id:1008396)

◎简 介

公元2035年,人类被12只猴子军研制的一种病毒侵袭,大部分人类都在这场病毒灾难中死亡,只有少数人侥幸逃生,但也只能在阴暗的地下,苟且偷生。

科学家们决定派人穿越时光回到1996年追查12只猴子军的来历。囚徒詹姆斯·科尔(布鲁斯·威利斯 Bruce Willis 饰)被 挑选为志愿者。阴差阳错,科尔回到了1990年,当他向当时的人们描述未来的那场大灾难时,被当作精神病捉了起来并被医生凯瑟琳·雪莉(玛德琳·斯通 Madeleine Stowe 饰)诊断为精神分裂症。科尔在病友杰弗里·戈因斯帮助下逃脱,回到了未来。因为没查清12只猴子军的来历,科尔再次被派回了1996年。

科尔这次发现了12只猴子军的起源地在费城,他找到了医生凯瑟琳,二人一起展开了追查12只猴子军的冒险之旅!

◎获奖情况 (共5项)

第68届奥斯卡金像奖 (1996)

最佳男配角(提名)

└──布拉德·皮特 (id:1054452)

最佳服装设计(提名)

└──朱莉·维斯 (id:1300651)

第46届柏林国际电影节 (1996)

金熊奖 最佳影片(提名)

└──特瑞·吉列姆 (id:1047980)

第53届金球奖 (1996)

电影类 最佳男配角

└──布拉德·皮特 (id:1054452)

第20届日本电影学院奖 (1997)

最佳外语片(提名)

  1. ##### MediaInfo ######

  2. General

  3. Unique ID : 93422314995742633224998256144003254665 (0x46487BBF9B2C4B5D0F92223B594A4989)

  4. Complete name : Twelve.Monkeys.1995.UHD.BluRay.2160p.DTS-HD.MA5.1.x265.10bit.HDR-ALT.mkv

  5. Format : Matroska

  6. Format version : Version 4

  7. File size : 28.0 GiB

  8. Duration : 2 h 9 min

  9. Overall bit rate mode : Variable

  10. Overall bit rate : 30.9 Mb/s

  11. Encoded date : UTC 2022-04-27 11:48:55

  12. Writing application : mkvmerge v49.0.0 ('Sick Of Losing Soulmates') 64-bit

  13. Writing library : libebml v1.4.0 + libmatroska v1.6.1


  14. Video

  15. ID : 1

  16. Format : HEVC

  17. Format/Info : High Efficiency Video Coding

  18. Format profile : Main [email protected]@High

  19. HDR format : SMPTE ST 2086, HDR10 compatible

  20. Codec ID : V_MPEGH/ISO/HEVC

  21. Duration : 2 h 9 min

  22. Bit rate : 26.6 Mb/s

  23. Width : 3 840 pixels

  24. Height : 2 076 pixels

  25. Display aspect ratio : 1.85:1

  26. Frame rate mode : Constant

  27. Frame rate : 23.976 (24000/1001/53354) FPS

  28. Color space : YUV

  29. Chroma subsampling : 4:2:0 (Type 2)

  30. Bit depth : 10 bits

  31. Bits/(Pixel*Frame) : 0.139

  32. Stream size : 24.0 GiB (86%)

  33. Title : HEVC, [email protected]@High, 24/1.001 fps @ 26578 kbps

  34. Writing library : x265 3.5+36-1f2c8da77:[Windows][GCC 11.2.0][64 bit] 10bit

  35. Encoding settings : cpuid=533541111039 / frame-threads=4 / numa-pools=20 / wpp / pmode / pme / no-psnr / no-ssim / log-level=2 / input-csp=1 / input-res=3840x2076 / interlace=0 / total-frames=186216 / level-idc=51 / high-tier=1 / uhd-bd=0 / ref=4 / no-allow-non-conformance / repeat-headers / annexb / no-aud / no-eob / no-eos / hrd / info / hash=0 / no-temporal-layers / no-open-gop / min-keyint=24 / keyint=240 / gop-lookahead=0 / bframes=8 / b-adapt=2 / b-pyramid / bframe-bias=0 / rc-lookahead=25 / lookahead-slices=0 / NTMzNTQ=uuDQuD2mJt9fsCf / scenecut=40 / no-hist-scenecut / radl=0 / no-splice / no-intra-refresh / ctu=64 / min-cu-size=8 / no-rect / no-amp / max-tu-size=32 / tu-inter-depth=3 / tu-intra-depth=3 / limit-tu=4 / rdoq-level=2 / dynamic-rd=0.00 / no-ssim-rd / signhide / no-tskip / nr-intra=0 / nr-inter=0 / no-constrained-intra / no-strong-intra-smoothing / max-merge=4 / limit-refs=1 / limit-modes / me=3 / subme=4 / merange=57 / temporal-mvp / no-frame-dup / no-hme / weightp / weightb / no-analyze-src-pics / deblock=-3:-3 / no-sao / no-sao-non-deblock / rd=6 / selective-sao=0 / no-early-skip / rskip / no-fast-intra / no-tskip-fast / no-cu-lossless / b-intra / no-splitrd-skip / rdpenalty=0 / psy-rd=2.00 / psy-rdoq=1.00 / no-rd-refine / no-lossless / cbqpoffs=0 / crqpoffs=0 / rc=crf / crf=21.5 / qcomp=0.65 / qpstep=4 / stats-write=0 / stats-read=0 / vbv-maxrate=160000 / vbv-bufsize=160000 / vbv-init=0.9 / min-vbv-fullness=50.0 / max-vbv-fullness=80.0 / crf-max=0.0 / crf-min=0.0 / ipratio=1.30 / pbratio=1.20 / aq-mode=3 / aq-strength=0.85 / cutree / zone-count=0 / no-strict-cbr / qg-size=32 / no-rc-grain / qpmax=69 / qpmin=0 / no-const-vbv / sar=1 / overscan=0 / videoformat=5 / range=0 / colorprim=9 / transfer=16 / colormatrix=9 / chromaloc=1 / chromaloc-top=2 / chromaloc-bottom=2 / display-window=0 / master-display=G(13250,34500)B(7500,3000)R(34000,16000)WP(15635,16450)L(10000000,1) / cll=0,0 / min-luma=0 / max-luma=1023 / log2-max-poc-lsb=8 / vui-timing-info / vui-hrd-info / slices=1 / no-opt-qp-pps / no-opt-ref-list-length-pps / no-multi-pass-opt-rps / scenecut-bias=0.05 / hist-threshold=0.03 / no-opt-cu-delta-qp / no-aq-motion / hdr10 / hdr10-opt / no-dhdr10-opt / no-idr-recovery-sei / analysis-reuse-level=0 / analysis-save-reuse-level=0 / analysis-load-reuse-level=0 / scale-factor=0 / refine-intra=0 / refine-inter=0 / refine-mv=1 / refine-ctu-distortion=0 / no-limit-sao / ctu-info=0 / no-lowpass-dct / refine-analysis-type=0 / copy-pic=1 / max-ausize-factor=1.0 / no-dynamic-refine / no-single-sei / no-hevc-aq / no-svt / no-field / qp-adaptation-range=1.00 / scenecut-aware-qp=0conformance-window-offsets / right=0 / bottom=0 / NTMzNTQ= / decoder-max-rate=0 / no-vbv-live-multi-pass

  36. Language : English

  37. Default : Yes

  38. Forced : No

  39. Color range : Limited

  40. Color primaries : BT.2020

  41. Transfer characteristics : PQ

  42. Matrix coefficients : BT.2020 non-constant

  43. Mastering display color primaries : Display P3

  44. Mastering display luminance : min: 0.0001 cd/m2, max: 1000 cd/m2


  45. Audio #1

  46. ID : 2

  47. Format : DTS XLL

  48. Format/Info : Digital Theater Systems

  49. Commercial name : DTS-HD Master Audio

  50. Codec ID : A_DTS

  51. Duration : 2 h 9 min

  52. Bit rate mode : Variable

  53. Bit rate : 3 901 kb/s

  54. Channel(s) : 6 channels

  55. Channel layout : C L R Ls Rs LFE

  56. Sampling rate : 48.0 kHz

  57. Frame rate : 93.750 FPS (512 SPF)

  58. Bit depth : 24 bits

  59. Compression mode : Lossless

  60. Stream size : 3.53 GiB (13%)

  61. Title : English DTS-HD Master Audio 5.1 @ 3901 kbps

  62. Language : English

  63. Default : Yes

  64. Forced : No


  65. Audio #2

  66. ID : 3

  67. Format : AC-3

  68. Format/Info : Audio Coding 3

  69. Commercial name : Dolby Digital

  70. Codec ID : A_AC3

  71. Duration : 2 h 9 min

  72. Bit rate mode : Constant

  73. Bit rate : 192 kb/s

  74. Channel(s) : 2 channels

  75. Channel layout : L R

  76. Sampling rate : 48.0 kHz

  77. Frame rate : 31.250 FPS (1536 SPF)

  78. Compression mode : Lossy

  79. Stream size : 178 MiB (1%)

  80. Title : English Dolby Digital Audio 2.0 @ 192 kbps Commentary

  81. Language : English

  82. Service kind : Complete Main

  83. Default : No

  84. Forced : No


  85. Text #1

  86. ID : 4

  87. Format : PGS

  88. Codec ID : S_HDMV/PGS

  89. Codec ID/Info : Picture based subtitle format used on BDs/HD-DVDs

  90. Duration : 2 h 5 min

  91. Bit rate : 47.0 kb/s

  92. Count of elements : 3532

  93. Stream size : 42.4 MiB (0%)

  94. Title : Eng/SUP

  95. Language : English

  96. Default : No

  97. Forced : No


  98. Text #2

  99. ID : 5

  100. Format : PGS

  101. Codec ID : S_HDMV/PGS

  102. Codec ID/Info : Picture based subtitle format used on BDs/HD-DVDs

  103. Duration : 2 h 7 min

  104. Bit rate : 44.3 kb/s

  105. Count of elements : 3599

  106. Stream size : 40.4 MiB (0%)

  107. Title : Chs/SUP 简体

  108. Language : Chinese

  109. Default : Yes

  110. Forced : No


  111. Text #3

  112. ID : 6

  113. Format : PGS

  114. Codec ID : S_HDMV/PGS

  115. Codec ID/Info : Picture based subtitle format used on BDs/HD-DVDs

  116. Duration : 2 h 7 min

  117. Bit rate : 45.9 kb/s

  118. Count of elements : 3599

  119. Stream size : 41.8 MiB (0%)

  120. Title : Cht/SUP 繁体

  121. Language : Chinese

  122. Default : No

  123. Forced : No


  124. Text #4

  125. ID : 7

  126. Format : PGS

  127. Codec ID : S_HDMV/PGS

  128. Codec ID/Info : Picture based subtitle format used on BDs/HD-DVDs

  129. Duration : 2 h 4 min

  130. Bit rate : 64.6 kb/s

  131. Count of elements : 2144

  132. Stream size : 57.5 MiB (0%)

  133. Title : Chs/SUP 简英双语

  134. Language : Chinese

  135. Default : No

  136. Forced : No


  137. Text #5

  138. ID : 8

  139. Format : PGS

  140. Codec ID : S_HDMV/PGS

  141. Codec ID/Info : Picture based subtitle format used on BDs/HD-DVDs

  142. Duration : 2 h 4 min

  143. Bit rate : 65.3 kb/s

  144. Count of elements : 2144

  145. Stream size : 58.1 MiB (0%)

  146. Title : Cht/SUP 繁英双语

  147. Language : Chinese

  148. Default : No

  149. Forced : No


  150. Menu

  151. 00:00:00.000 : en:第 01 章

  152. 00:10:57.365 : en:第 02 章

  153. 00:21:28.869 : en:第 03 章

  154. 00:29:26.263 : en:第 04 章

  155. 00:42:05.231 : en:第 05 章

  156. 00:53:14.065 : en:第 06 章

  157. 01:06:32.195 : en:第 07 章

  158. 01:15:49.836 : en:第 08 章

  159. 01:26:03.992 : en:第 09 章

  160. 01:36:26.779 : en:第 10 章

  161. 01:46:32.676 : en:第 11 章

  162. 01:57:33.296 : en:第 12 章




复制代码



文件下载


除非特别注明,本文『十二猴子[简繁英字幕].Twelve.Monkeys.1995.UHD.BluRay.2160p.DTS-HD.MA5.1.x265.10bit.HDR-ALT 27.97GB』来源于互联网机器人自动抓取,非本站原创。 浮游电影网不对本文拥有版权,如有侵犯,请联系邮箱:fuyouu#yandex.com[#换成@]投诉。我们会在15个工作日内删除。 但烦请转载时请标明出处:“本文转载于『浮游电影网』,原文地址:https://www.fuyouu.com/21772.html

评论吧骚年!

发表你的见解   

昵称*

E-mail*(建议输入,以便收到博主回复的提示邮件)

验证码*

您可以使用eMule或eMule Mod(Windows)、aMule(Win、Linux、Mac)等软件下载eD2k链接。。
eMule收藏集(.emulecollection)文件是您选中的所有链接的列表文件。eMule可以直接下载它们。
按住SHIFT键选择可以选中多个选择框。
可用文件名和大小选择器来选择文件。
文件名选择器帮您根据文件名称或后缀来选择文件。不分大小写。
符号使用:
和:空格( )、+
不包含:-
或:|
转义:一对英文引号("");
匹配开头:^
匹配结尾:$
例如:
选中所有名称中包含有“eMule”或“0.49c”字眼,但不包含有“exe”字眼的:emule|0.49c -exe
选中所有名称的开头是“eMule”,结尾是“0.49c”的:^emule 0.49c$
选中所有名称中带有“eMule 0.49c”的(必须是“eMule 0.49c”,中间没有别的字符,不能是“eMule fake 0.49c”),需要转义:"emule 0.49c"
大小选择器帮您根据文件大小选择文件。