当前位置: 首页 >> 欧美电影 >> 变相怪杰2:面具之子[简繁字幕].Son.of.the.Mask.2005.BluRay.1080p.DTS-HD.MA5.1.x265.10bit-ALT 9.98GB >> 正文

变相怪杰2:面具之子[简繁字幕].Son.of.the.Mask.2005.BluRay.1080p.DTS-HD.MA5.1.x265.10bit-ALT 9.98GB

2022年04月29日 00:43:30     电影发布:来源于网络     电影分类:欧美电影     评论(0)    

◎译 名 变相怪杰2:面具之子 / 变相怪杰2 / 摩登小鬼 / 变相怪B / 面具2:面具之子

◎片 名 Son of the Mask

◎年 代 2005

◎产 地 美国 / 德国 / 澳大利亚 / 法国

◎类 别 喜剧 / 奇幻

◎语 言 英语

◎上映日期 2005-03-17

◎IMDb链接 https://www.imdb.com/title/tt0362165/

◎豆瓣评分 6.0/10 (14343人评价)

◎豆瓣链接 https://movie.douban.com/subject/1309193/

◎片 长 94 分钟

◎导 演 劳伦斯·哥特曼 Lawrence Guterman (id:1285660)

◎编 剧 Lance Khazei Lance Khazei (id:1303933)

◎演 员 杰米·肯尼迪 Jamie Kennedy (id:1019042)

艾伦·卡明 Alan Cumming (id:1006980)

Ryan Falconer Ryan Falconer (id:1210907)

特蕾勒·霍华德 Traylor Howard (id:1017990)

史蒂夫·赖特 Steven Wright (id:1036771)

卡尔·潘 Kal Penn (id:1048127)

本·斯坦 Ben Stein (id:1150280)

海蒂·麦克丹尼尔斯 Hattie McDaniel (id:1018116)

科林·博戈农 Colin Borgonon (id:1468758)

鲍勃·霍斯金斯 Bob Hoskins (id:1041156)

比尔·法玛尔 Bill Farmer (id:1283454)

莫娜·马歇尔 Mona Marshall (id:1121377)

Joyce Kurtz Joyce Kurtz (id:1111403)

理查德·史蒂文·霍维茨 Richard Steven Horvitz (id:1102289)

达蒙·海瑞曼 Damon Herriman (id:1098686)

拉里·塞达尔 Larry Cedar (id:1075745)

杰里·麦纳尔 Jerry Minor (id:1028013)

保罗·潘塔诺 Paul Pantano (id:1132632)

玛格达·苏班斯基 Magda Szubanski (id:1000478)

Tina Bursill Tina Bursill (id:1279697)

迈克尔·延纳 Michael Ienna (id:1248111)

玛丽·茅泽 Mary Matilyn Mouser (id:1196711)

杜坎·杨 Duncan Young (id:1216961)

伊戈尔·斯米利耶维奇 Igor Smiljevic (id:1216847)

Liam Falconer Liam Falconer (id:1176909)

克雷格·沃克 Craig Walker (id:1163810)

内尔·洛斯 Neil Ross (id:1145653)

Mike Richardson Mike Richardson (id:1312524)

托比·艾默里奇 Toby Emmerich (id:1005136)

兰迪·艾德尔曼 Randy Edelman (id:1019213)

瑞恩·卡布雷拉 Ryan Cabrera (id:1211540)

Greg Gardiner Greg Gardiner (id:1284550)

黛布拉·尼尔-费舍尔 Debra Neil-Fisher (id:1293005)

Dan Morski Dan Morski (id:1024804)

莱斯利·迪利 Leslie Dilley (id:1282443)

玛丽·E·沃格特 Mary E. Vogt (id:1300156)

David Dupuis David Dupuis (id:1282837)

布莱恩·西普 Brian Sipe (id:1297726)

阿列克谢·德米特里尤 Alexei O'Brien (id:1306675)

格雷格·卡农 Greg Cannom (id:1280002)

提姆菲尼克斯 Tim Phoenix (id:1222616)

Anthony Allen Barlow Anthony Allen Barlow (id:1064537)

基斯·范德兰 Keith VanderLaan (id:1299886)

Thomas Schelesny Thomas Schelesny (id:1296844)

Chad Taylor Chad Taylor (id:1298971)

Allan McKay Allan McKay (id:1220948)

R.J. Harbour (id:1219885)

James Dornoff James Dornoff (id:1211993)

Vicki Wong Vicki Wong (id:1301201)

Erik Paynter Erik Paynter (id:1209944)

Travis Pinsonnault Travis Pinsonnault (id:1208586)

菲奥娜·坎贝尔·韦斯特盖特 Fiona Campbell Westgate (id:1201212)

夏伊娜·霍尔姆斯 Shaina Holmes (id:1197723)

萨姆·爱德华兹 Sam Edwards (id:1224117)

Clint Thorne Clint Thorne (id:1196120)

Lori C. Miller Lori C. Miller (id:1193945)

Amani Williams Amani Williams (id:1193389)

塔米·萨顿 Tammy Sutton (id:1298686)

托马斯·罗塞特 Thomas Rosseter (id:1296146)

Justin Mitchell Justin Mitchell (id:1292234)

Susan MacLeod Susan MacLeod (id:1290668)

Anthony 'Max' Ivins Anthony 'Max' Ivins (id:1287451)

爱德华·赫希 Edward Hirsh (id:1286690)

Martin Hilke Martin Hilke (id:1286616)

Ned Gorman Ned Gorman (id:1285204)

Michele Ferrone Michele Ferrone (id:1283650)

马克·丹菲特 Mark Dornfeld (id:1282612)

克里斯·戴尔·康特 Chris Del Conte (id:1282169)

David Sosalla David Sosalla (id:1298080)

汤姆·柏提诺 Tom Bertino (id:1278530)

Dugan Beach Dugan Beach (id:1278146)

Jason Armstrong Jason Armstrong (id:1277409)

吉姆·苏卡普 Jim Soukup (id:1193247)

查尔斯·施瓦茨 Charles Schwartz (id:1183413)

达米恩·卡尔 Damien Carr (id:1182797)

James W. Brown James W. Brown (id:1309017)

布莱恩·哈纳伯 Brian Hanable (id:1090997)

大卫·理查德·尼尔森 David Richard Nelson (id:1311235)

Colin Epstein Colin Epstein (id:1086928)

菲·陈 Phi Tran (id:1309487)

Tom Martinek Tom Martinek (id:1048885)

Todd Labonte Todd Labonte (id:1305816)

Syd Dutton Syd Dutton (id:1038517)

Michael Rich Michael Rich (id:1035907)

Steve Zukerman Steve Zukerman (id:1034185)

Grant Niesner Grant Niesner (id:1134578)

班诺特·吉拉尔 Benoit Girard (id:1308287)

Dovi Anderson Dovi Anderson (id:1307512)

杰罗姆·莫林 Jerome Morin (id:1307280)

马克·西格尔 Mark Siegel (id:1024269)

Andy Tamandl Andy Tamandl (id:1168011)

Tania Richard Tania Richard (id:1305650)

弗兰克·格莱瓦特 Frank Gravatt (id:1304404)

M·扎卡里·谢尔曼 M. Zachary Sherman (id:1147125)

费尔·琼斯 Phil Jones (id:1304989)

◎简 介

此片是1994年三大票房猛片之一《变相怪杰》的续集。

蒂姆(杰米·肯尼迪 Jamie Kennedy 饰)和妻子杜雅(特蕾勒·霍华德 Traylor Howard 饰)过着平静的生活。一天,他的狗狗发现了一个绿色的面具,无意间戴上面具的蒂姆拥有了神奇的魔力和无法自控的疯狂,令同事和老板对他另眼相看。九个月后,儿子威仔出生了,并伴随着奇怪的超能力。这立即引起了原面具主人“恶作剧之神”洛基(艾伦·卡明 Alan Cumming 饰)的注意,而洛基的父亲独眼奥丁神也命他将面具夺回来。此时,蒂姆也想尽快找到面具,来完成老板要求的卡通人物的创作。此时洛基离他们越来越近,杜雅也因商务出差离开了小镇,只留下添美扮演全职父亲的角色。当威仔已能渐渐掌握这股超能力时,洛基也终于找到了这家人......

  1. ##### MediaInfo ######

  2. General

  3. Unique ID : 288675657552127048235297155810948260932 (0xD92CE8C8826C80586960C26A804FA444)

  4. Complete name : Son.of.the.Mask.2005.BluRay.1080p.DTS-HD.MA5.1.x265.10bit-ALT.mkv

  5. Format : Matroska

  6. Format version : Version 4

  7. File size : 9.98 GiB

  8. Duration : 1 h 36 min

  9. Overall bit rate mode : Variable

  10. Overall bit rate : 14.9 Mb/s

  11. Encoded date : UTC 2022-04-27 11:34:34

  12. Writing application : mkvmerge v49.0.0 ('Sick Of Losing Soulmates') 64-bit

  13. Writing library : libebml v1.4.0 + libmatroska v1.6.1


  14. Video

  15. ID : 1

  16. Format : HEVC

  17. Format/Info : High Efficiency Video Coding

  18. Format profile : Main [email protected]@High

  19. Codec ID : V_MPEGH/ISO/HEVC

  20. Duration : 1 h 36 min

  21. Bit rate : 12.7 Mb/s

  22. Width : 1 920 pixels

  23. Height : 1 076 pixels

  24. Display aspect ratio : 16:9

  25. Frame rate mode : Constant

  26. Frame rate : 23.976 (24000/1001/53354) FPS

  27. Color space : YUV

  28. Chroma subsampling : 4:2:0

  29. Bit depth : 10 bits

  30. Bits/(Pixel*Frame) : 0.256

  31. Stream size : 8.51 GiB (85%)

  32. Title : HEVC, [email protected]@High, 24/1.001 fps @ 12666 kbps

  33. Writing library : x265 3.5+36-1f2c8da77:[Windows][GCC 11.2.0][64 bit] 10bit

  34. Encoding settings : cpuid=533541111039 / frame-threads=4 / numa-pools=16 / wpp / pmode / pme / no-psnr / no-ssim / log-level=2 / input-csp=1 / input-res=1920x1076 / interlace=0 / total-frames=138351 / level-idc=51 / high-tier=1 / uhd-bd=0 / ref=5 / no-allow-non-conformance / no-repeat-headers / annexb / no-aud / no-eob / no-eos / no-hrd / info / hash=0 / no-temporal-layers / open-gop / min-keyint=24 / keyint=240 / gop-lookahead=0 / bframes=6 / b-adapt=2 / b-pyramid / bframe-bias=0 / rc-lookahead=40 / lookahead-slices=0 / NTMzNTQ=uuDQuD2mJt9fsCf / scenecut=40 / no-hist-scenecut / radl=0 / no-splice / no-intra-refresh / ctu=32 / min-cu-size=8 / no-rect / no-amp / max-tu-size=32 / tu-inter-depth=3 / tu-intra-depth=3 / limit-tu=4 / rdoq-level=2 / dynamic-rd=0.00 / no-ssim-rd / signhide / no-tskip / nr-intra=0 / nr-inter=0 / no-constrained-intra / no-strong-intra-smoothing / max-merge=4 / limit-refs=1 / limit-modes / me=3 / subme=4 / merange=25 / temporal-mvp / no-frame-dup / no-hme / weightp / weightb / no-analyze-src-pics / deblock=-3:-3 / no-sao / no-sao-non-deblock / rd=6 / selective-sao=0 / no-early-skip / rskip / no-fast-intra / no-tskip-fast / no-cu-lossless / b-intra / no-splitrd-skip / rdpenalty=0 / psy-rd=2.00 / psy-rdoq=1.00 / no-rd-refine / no-lossless / cbqpoffs=0 / crqpoffs=0 / rc=crf / crf=19.5 / qcomp=0.65 / qpstep=4 / stats-write=0 / stats-read=0 / vbv-maxrate=80000 / vbv-bufsize=80000 / vbv-init=0.9 / min-vbv-fullness=50.0 / max-vbv-fullness=80.0 / crf-max=0.0 / crf-min=0.0 / ipratio=1.40 / pbratio=1.30 / aq-mode=2 / aq-strength=0.85 / cutree / zone-count=0 / no-strict-cbr / qg-size=32 / no-rc-grain / qpmax=69 / qpmin=0 / no-const-vbv / sar=1 / overscan=0 / videoformat=5 / range=0 / colorprim=1 / transfer=1 / colormatrix=1 / chromaloc=0 / display-window=0 / cll=0,0 / min-luma=0 / max-luma=1023 / log2-max-poc-lsb=8 / vui-timing-info / vui-hrd-info / slices=1 / no-opt-qp-pps / no-opt-ref-list-length-pps / no-multi-pass-opt-rps / scenecut-bias=0.05 / hist-threshold=0.03 / no-opt-cu-delta-qp / no-aq-motion / no-hdr10 / no-hdr10-opt / no-dhdr10-opt / no-idr-recovery-sei / analysis-reuse-level=0 / analysis-save-reuse-level=0 / analysis-load-reuse-level=0 / scale-factor=0 / refine-intra=0 / refine-inter=0 / refine-mv=1 / refine-ctu-distortion=0 / no-limit-sao / ctu-info=0 / no-lowpass-dct / refine-analysis-type=0 / copy-pic=1 / max-ausize-factor=1.0 / no-dynamic-refine / no-single-sei / no-hevc-aq / no-svt / no-field / qp-adaptation-range=1.00 / scenecut-aware-qp=0conformance-window-offsets / right=0 / bottom=0 / NTMzNTQ= / decoder-max-rate=0 / no-vbv-live-multi-pass

  35. Language : English

  36. Default : Yes

  37. Forced : No

  38. Color range : Limited

  39. Color primaries : BT.709

  40. Transfer characteristics : BT.709

  41. Matrix coefficients : BT.709


  42. Audio

  43. ID : 2

  44. Format : DTS XLL

  45. Format/Info : Digital Theater Systems

  46. Commercial name : DTS-HD Master Audio

  47. Codec ID : A_DTS

  48. Duration : 1 h 36 min

  49. Bit rate mode : Variable

  50. Bit rate : 2 146 kb/s

  51. Channel(s) : 6 channels

  52. Channel layout : C L R Ls Rs LFE

  53. Sampling rate : 48.0 kHz

  54. Frame rate : 93.750 FPS (512 SPF)

  55. Bit depth : 16 bits

  56. Compression mode : Lossless

  57. Stream size : 1.44 GiB (14%)

  58. Title : English DTS-HD Master Audio 5.1 @ 2146 kbps

  59. Language : English

  60. Default : Yes

  61. Forced : No


  62. Text #1

  63. ID : 3

  64. Format : PGS

  65. Codec ID : S_HDMV/PGS

  66. Codec ID/Info : Picture based subtitle format used on BDs/HD-DVDs

  67. Duration : 1 h 28 min

  68. Bit rate : 20.3 kb/s

  69. Count of elements : 2346

  70. Stream size : 12.9 MiB (0%)

  71. Title : Chs/SUP 简体

  72. Language : Chinese

  73. Default : Yes

  74. Forced : No


  75. Text #2

  76. ID : 4

  77. Format : PGS

  78. Codec ID : S_HDMV/PGS

  79. Codec ID/Info : Picture based subtitle format used on BDs/HD-DVDs

  80. Duration : 1 h 28 min

  81. Bit rate : 20.8 kb/s

  82. Count of elements : 2346

  83. Stream size : 13.2 MiB (0%)

  84. Title : Cht/SUP 繁体

  85. Language : Chinese

  86. Default : No

  87. Forced : No


  88. Menu

  89. 00:00:00.000 : en:第 01 章

  90. 00:08:30.051 : en:第 02 章

  91. 00:14:57.688 : en:第 03 章

  92. 00:24:02.691 : en:第 04 章

  93. 00:30:06.513 : en:第 05 章

  94. 00:36:24.557 : en:第 06 章

  95. 00:42:52.403 : en:第 07 章

  96. 00:51:23.455 : en:第 08 章

  97. 00:58:31.550 : en:第 09 章

  98. 01:03:36.980 : en:第 10 章

  99. 01:11:51.474 : en:第 11 章

  100. 01:20:22.609 : en:第 12 章




复制代码



文件下载


除非特别注明,本文『变相怪杰2:面具之子[简繁字幕].Son.of.the.Mask.2005.BluRay.1080p.DTS-HD.MA5.1.x265.10bit-ALT 9.98GB』来源于互联网机器人自动抓取,非本站原创。 浮游电影网不对本文拥有版权,如有侵犯,请联系邮箱:fuyouu#yandex.com[#换成@]投诉。我们会在15个工作日内删除。 但烦请转载时请标明出处:“本文转载于『浮游电影网』,原文地址:https://www.fuyouu.com/21771.html

评论吧骚年!

发表你的见解   

昵称*

E-mail*(建议输入,以便收到博主回复的提示邮件)

验证码*

您可以使用eMule或eMule Mod(Windows)、aMule(Win、Linux、Mac)等软件下载eD2k链接。。
eMule收藏集(.emulecollection)文件是您选中的所有链接的列表文件。eMule可以直接下载它们。
按住SHIFT键选择可以选中多个选择框。
可用文件名和大小选择器来选择文件。
文件名选择器帮您根据文件名称或后缀来选择文件。不分大小写。
符号使用:
和:空格( )、+
不包含:-
或:|
转义:一对英文引号("");
匹配开头:^
匹配结尾:$
例如:
选中所有名称中包含有“eMule”或“0.49c”字眼,但不包含有“exe”字眼的:emule|0.49c -exe
选中所有名称的开头是“eMule”,结尾是“0.49c”的:^emule 0.49c$
选中所有名称中带有“eMule 0.49c”的(必须是“eMule 0.49c”,中间没有别的字符,不能是“eMule fake 0.49c”),需要转义:"emule 0.49c"
大小选择器帮您根据文件大小选择文件。