当前位置: 首页 >> 海外电影 >> 寂静岭[共2部合集][国英多音轨/简繁英字幕].Silent.Hill.1-2.2006-2012.BluRay.1080p.DTS-HD.MA.5.1.x265.10bit-ALT 17.91GB >> 正文

寂静岭[共2部合集][国英多音轨/简繁英字幕].Silent.Hill.1-2.2006-2012.BluRay.1080p.DTS-HD.MA.5.1.x265.10bit-ALT 17.91GB

2022年04月29日 00:39:50     电影发布:来源于网络     电影分类:海外电影     评论(0)    

◎译 名 寂静岭 / 鬼魅山房(港) / 沉默之丘(台) / 哑巴山

◎片 名 Silent Hill

◎年 代 2006

◎产 地 加拿大 / 法国

◎类 别 悬疑 / 恐怖

◎语 言 英语

◎上映日期 2006-04-21(美国)

◎IMDb链接 https://www.imdb.com/title/tt0384537/

◎豆瓣评分 7.7/10 (253966人评价)

◎豆瓣链接 https://movie.douban.com/subject/1466007/

◎片 长 125分钟

◎导 演 克里斯多夫·甘斯 Christophe Gans (id:1032283)

◎编 剧 罗杰·阿夫瑞 Roger Avary (id:1049901)

◎演 员 拉达·米切尔 Radha Mitchell (id:1041109)

祖蒂·弗兰 Jodelle Ferland (id:1027141)

肖恩·宾 Sean Bean (id:1002683)

劳瑞·侯登 Laurie Holden (id:1036452)

黛博拉·卡拉·安格 Deborah Kara Unger (id:1002738)

金·寇兹 Kim Coates (id:1013818)

谭雅·艾伦 Tanya Allen (id:1342580)

艾丽丝·克里奇 Alice Krige (id:1055814)

Janet Land Janet Land (id:1103735)

妮基·瓜达尼 Nicky Guadagni (id:1337231)

Rhoslynne Bugay Rhoslynne Bugay (id:1205693)

斯蒂芬·R·哈特 Stephen R. Hart (id:1205491)

罗伯托·坎帕内利亚 Roberto Campanella (id:1196106)

Melissa Panton (id:1220519)

Zsuzsanna Cseh Zsuzsanna Cseh (id:1176151)

山冈晃 Akira Yamaoka (id:1005621)

塞缪尔·哈迪达 Samuel Hadida (id:1037083)

安德鲁·梅森 Andrew Mason (id:1291219)

唐·卡莫迪 Don Carmody (id:1280114)

尼古拉斯·布赫里夫 Nicolas Boukhrief (id:1019943)

山冈晃 Akira Yamaoka (id:1005621)

杰夫·丹纳 Jeff Danna (id:1276509)

达恩·劳斯特森 Dan Laustsen (id:1019330)

Sébastien Prangère Sébastien Prangère (id:1006192)

Deirdre Bowen Deirdre Bowen (id:1279088)

James McAteer James McAteer (id:1291417)

Carol Spier Carol Spier (id:1298152)

Elinor Rose Galbraith Elinor Rose Galbraith (id:1008592)

Wendy Partridge Wendy Partridge (id:1294032)

保罗·帕蒂森 Paul Pattison (id:1294106)

Sean Sansom Sean Sansom (id:1296662)

帕特里克·塔特普洛斯 Patrick Tatopoulos (id:1298949)

Shane Zander Shane Zander (id:1180628)

Paul Jones Paul Jones (id:1113435)

Patrick Baxter Patrick Baxter (id:1208664)

Rose-Mary Gubala Rose-Mary Gubala (id:1217083)

William Gereghty William Gereghty (id:1284734)

Pierre Henry Pierre Henry (id:1101749)

Beau Ferris Beau Ferris (id:1208700)

Andrew Shea Andrew Shea (id:1297370)

Sarah Campbell Sarah Campbell (id:1276363)

Cindy L. Irwin Cindy L. Irwin (id:1202708)

芭芭拉·麦卡拉姆 Barbara McCullam (id:1291509)

Alan Goluboff Alan Goluboff (id:1285094)

阿格涅斯卡·克罗斯科夫斯卡 Agnieszka Kroskowska (id:1133164)

David C. Malcolm David C. Malcolm (id:1121070)

Christopher Holden Christopher Holden (id:1014787)

Michael Peleshok Michael Peleshok (id:1178427)

Dan Wheaton Dan Wheaton (id:1310282)

达西·里诺 Darcy Reno (id:1214643)

杰瑞米·迪尼恩 Jeremy Dineen (id:1202635)

菲奥娜·坎贝尔·韦斯特盖特 Fiona Campbell Westgate (id:1201212)

梅利莎·贝斯特 Melissa Best (id:1189596)

Laurence Cymet Laurence Cymet (id:1178499)

杰森·布斯 Jason Booth (id:1176425)

George L. Wright George L. Wright (id:1171849)

乔治·泰勒 George Taylor (id:1170370)

Gary O'Brien Gary O'Brien (id:1134651)

Noel Hocquet (id:1219373)

Tom Leckie (id:1229772)

丹尼尔·水口 Daniel Mizuguchi (id:1309067)

Mark Fordham Mark Fordham (id:1305949)

Allan Walker Allan Walker (id:1303821)

埃里克·J·罗伯特森 Eric J. Robertson (id:1295789)

Mathieu Raynault Mathieu Raynault (id:1295302)

Lynda McKenzie Lynda McKenzie (id:1291654)

David Fox (id:1256908)

Jeff Higgins (id:1255547)

Tony Cybulski Tony Cybulski (id:1252242)

David Luong (id:1240474)

Meinert Hansen Meinert Hansen (id:1093023)

Nicolas Bernard Nicolas Bernard (id:1064125)

列夫·科洛博夫 Lev Kolobov (id:1020325)

斯特凡·切雷蒂 Stephane Ceretti (id:1029609)

阿龙·温特劳布 Aaron Weintraub (id:1017123)

Mario Antognetti Mario Antognetti (id:1026757)

伊万·雅格布斯 Evan Jacobs (id:1042616)

Bret Culp Bret Culp (id:1008419)

格雷格·阿瑟尔斯 Greg Astles (id:1059196)

洛恩·莫尔纳 Lon Molnar (id:1051865)

◎简 介

为了女儿,Rose(拉达?米契尔 饰)与女儿一起来到了一个奇怪的地方。

女儿常常梦游,Rose寻遍医生都无法把女儿的病治好,虽然灰心过但Rose还是不愿放弃医治女儿。女儿是她的命根,女儿梦游时总是说着一个名字,于是她丢下丈夫(肖恩?宾 饰),到了那个叫寂静岭的地方。

Rose以为在那里能找到治疗女儿疾病的答案,但这个地方却出乎了她当初所想象。祸不单行的是女儿在这时候奇怪地失踪了。这里不像一般的城镇,空气中弥漫着让人窒息的浓雾。在这里居住的人不多,却有很多奇怪的生物居住,Rose到处寻找女儿,却不得要领。而且更常常遇到令她意想不到的事情,从未接触过的事物。渐渐的,她了解了有关这个地方的历史,也得知了一个秘密……

  1. 合集文件列表:

  2. 1.Silent.Hill.2006.BluRay.1080p.2Audio.DTS-HD.MA.5.1.x265.10bit-ALT.mkv 12.25GB

  3. 2.Silent.Hill.Revelation.2012.BluRay.1080p.DTS.x265.10bit-ALT.mkv 5.65GB


复制代码

  1. ##### MediaInfo ######

  2. General

  3. Unique ID : 269512505216653536149343569798475276828 (0xCAC2386D566489EA631540338ADFE21C)

  4. Complete name : Silent.Hill.2006.BluRay.1080p.2Audio.DTS-HD.MA.5.1.x265.10bit-ALT.mkv

  5. Format : Matroska

  6. Format version : Version 4

  7. File size : 12.3 GiB

  8. Duration : 2 h 5 min

  9. Overall bit rate mode : Variable

  10. Overall bit rate : 14.0 Mb/s

  11. Encoded date : UTC 2020-07-24 06:09:06

  12. Writing application : mkvmerge v48.0.0 ('Fortress Around Your Heart') 64-bit

  13. Writing library : libebml v1.4.0 + libmatroska v1.6.0


  14. Video

  15. ID : 1

  16. Format : HEVC

  17. Format/Info : High Efficiency Video Coding

  18. Format profile : Main [email protected]@High

  19. Codec ID : V_MPEGH/ISO/HEVC

  20. Duration : 2 h 5 min

  21. Bit rate : 11.2 Mb/s

  22. Width : 1 920 pixels

  23. Height : 818 pixels

  24. Display aspect ratio : 2.35:1

  25. Frame rate mode : Constant

  26. Frame rate : 23.976 (24000/1001/53354) FPS

  27. Color space : YUV

  28. Chroma subsampling : 4:2:0

  29. Bit depth : 10 bits

  30. Bits/(Pixel*Frame) : 0.297

  31. Stream size : 9.79 GiB (80%)

  32. Title : HEVC, [email protected]@High, 24/1.001 fps @ 11180 kbps

  33. Writing library : x265 3.3+1-g396395b2b:[Windows][GCC 9.2.0][64 bit] 10bit

  34. Encoding settings : cpuid=533541111039 / frame-threads=5 / numa-pools=44,44 / wpp / pmode / pme / no-psnr / no-ssim / log-level=2 / input-csp=1 / input-res=1920x818 / interlace=0 / total-frames=180286 / level-idc=51 / high-tier=1 / uhd-bd=0 / ref=5 / no-allow-non-conformance / no-repeat-headers / annexb / no-aud / no-hrd / info / hash=0 / no-temporal-layers / open-gop / min-keyint=24 / keyint=240 / gop-lookahead=0 / bframes=6 / b-adapt=2 / b-pyramid / bframe-bias=0 / rc-lookahead=40 / lookahead-slices=0 / NTMzNTQ=uuDQuD2mJt9fsCf / scenecut=40 / hist-scenecut=0 / radl=0 / no-splice / no-intra-refresh / ctu=32 / min-cu-size=8 / no-rect / no-amp / max-tu-size=32 / tu-inter-depth=3 / tu-intra-depth=3 / limit-tu=4 / rdoq-level=2 / dynamic-rd=0.00 / no-ssim-rd / signhide / no-tskip / nr-intra=0 / nr-inter=0 / no-constrained-intra / no-strong-intra-smoothing / max-merge=4 / limit-refs=1 / limit-modes / me=3 / subme=4 / merange=25 / temporal-mvp / no-frame-dup / no-hme / weightp / weightb / no-analyze-src-pics / deblock=-3:-3 / no-sao / no-sao-non-deblock / rd=6 / selective-sao=0 / no-early-skip / rskip / no-fast-intra / no-tskip-fast / no-cu-lossless / b-intra / no-splitrd-skip / rdpenalty=0 / psy-rd=2.00 / psy-rdoq=1.00 / no-rd-refine / no-lossless / cbqpoffs=0 / crqpoffs=0 / rc=crf / crf=18.5 / qcomp=0.65 / qpstep=4 / stats-write=0 / stats-read=0 / vbv-maxrate=80000 / vbv-bufsize=80000 / vbv-init=0.9 / crf-max=0.0 / crf-min=0.0 / ipratio=1.40 / pbratio=1.30 / aq-mode=2 / aq-strength=0.85 / cutree / zone-count=0 / no-strict-cbr / qg-size=32 / no-rc-grain / qpmax=69 / qpmin=0 / no-const-vbv / sar=1 / overscan=0 / videoformat=5 / range=0 / colorprim=1 / transfer=1 / colormatrix=1 / chromaloc=0 / display-window=0 / cll=0,0 / min-luma=0 / max-luma=1023 / log2-max-poc-lsb=8 / vui-timing-info / vui-hrd-info / slices=1 / no-opt-qp-pps / no-opt-ref-list-length-pps / no-multi-pass-opt-rps / scenecut-bias=0.05 / hist-threshold=0.01 / no-opt-cu-delta-qp / no-aq-motion / no-hdr10 / no-hdr10-opt / no-dhdr10-opt / no-idr-recovery-sei / analysis-reuse-level=0 / analysis-save-reuse-level=0 / analysis-load-reuse-level=0 / scale-factor=0 / refine-intra=0 / refine-inter=0 / refine-mv=1 / refine-ctu-distortion=0 / no-limit-sao / ctu-info=0 / no-lowpass-dct / refine-analysis-type=0 / copy-pic=1 / max-ausize-factor=1.0 / no-dynamic-refine / no-single-sei / no-hevc-aq / no-svt / no-field / qp-adaptation-range=1.00 / no-scenecut-aware-qpconformance-window-offsets / right=0 / bottom=0 / NTMzNTQ=

  35. Language : English

  36. Default : Yes

  37. Forced : No

  38. Color range : Limited

  39. Color primaries : BT.709

  40. Transfer characteristics : BT.709

  41. Matrix coefficients : BT.709


  42. Audio #1

  43. ID : 2

  44. Format : DTS XLL

  45. Format/Info : Digital Theater Systems

  46. Commercial name : DTS-HD Master Audio

  47. Codec ID : A_DTS

  48. Duration : 2 h 5 min

  49. Bit rate mode : Variable

  50. Bit rate : 2 372 kb/s

  51. Channel(s) : 6 channels

  52. Channel layout : C L R Ls Rs LFE

  53. Sampling rate : 48.0 kHz

  54. Frame rate : 93.750 FPS (512 SPF)

  55. Bit depth : 16 bits

  56. Compression mode : Lossless

  57. Stream size : 2.08 GiB (17%)

  58. Title : English DTS-HD Master Audio 5.1 @ 2372 kbps

  59. Language : English

  60. Default : Yes

  61. Forced : No


  62. Audio #2

  63. ID : 3

  64. Format : AC-3

  65. Format/Info : Audio Coding 3

  66. Commercial name : Dolby Digital

  67. Codec ID : A_AC3

  68. Duration : 2 h 5 min

  69. Bit rate mode : Constant

  70. Bit rate : 384 kb/s

  71. Channel(s) : 2 channels

  72. Channel layout : L R

  73. Sampling rate : 48.0 kHz

  74. Frame rate : 31.250 FPS (1536 SPF)

  75. Compression mode : Lossy

  76. Stream size : 344 MiB (3%)

  77. Title : Mandarin Dolby Digital Audio 2.0 @@ 384 kbps

  78. Language : Chinese

  79. Service kind : Complete Main

  80. Default : No

  81. Forced : No


  82. Text #1

  83. ID : 4

  84. Format : PGS

  85. Codec ID : S_HDMV/PGS

  86. Codec ID/Info : Picture based subtitle format used on BDs/HD-DVDs

  87. Duration : 1 h 54 min

  88. Bit rate : 21.1 kb/s

  89. Count of elements : 1848

  90. Stream size : 17.3 MiB (0%)

  91. Title : Eng/SUP

  92. Language : English

  93. Default : No

  94. Forced : No


  95. Text #2

  96. ID : 5

  97. Format : PGS

  98. Codec ID : S_HDMV/PGS

  99. Codec ID/Info : Picture based subtitle format used on BDs/HD-DVDs

  100. Duration : 1 h 57 min

  101. Bit rate : 13.8 kb/s

  102. Count of elements : 1816

  103. Stream size : 11.6 MiB (0%)

  104. Title : Chs/SUP 简体

  105. Language : Chinese

  106. Default : Yes

  107. Forced : No


  108. Text #3

  109. ID : 6

  110. Format : PGS

  111. Codec ID : S_HDMV/PGS

  112. Codec ID/Info : Picture based subtitle format used on BDs/HD-DVDs

  113. Duration : 1 h 57 min

  114. Bit rate : 14.1 kb/s

  115. Count of elements : 1814

  116. Stream size : 11.8 MiB (0%)

  117. Title : Cht/SUP 繁体

  118. Language : Chinese

  119. Default : No

  120. Forced : No


  121. Text #4

  122. ID : 7

  123. Format : PGS

  124. Codec ID : S_HDMV/PGS

  125. Codec ID/Info : Picture based subtitle format used on BDs/HD-DVDs

  126. Duration : 1 h 57 min

  127. Bit rate : 14.1 kb/s

  128. Count of elements : 1842

  129. Stream size : 11.9 MiB (0%)

  130. Title : Chs/SUP 国语简体

  131. Language : Chinese

  132. Default : No

  133. Forced : No


  134. Menu

  135. 00:00:00.000 : en:第 01 章

  136. 00:03:24.871 : en:第 02 章

  137. 00:13:14.210 : en:第 03 章

  138. 00:17:44.521 : en:第 04 章

  139. 00:21:32.791 : en:第 05 章

  140. 00:25:41.122 : en:第 06 章

  141. 00:30:20.401 : en:第 07 章

  142. 00:34:45.958 : en:第 08 章

  143. 00:38:52.496 : en:第 09 章

  144. 00:42:56.699 : en:第 10 章

  145. 00:47:14.665 : en:第 11 章

  146. 00:53:45.931 : en:第 12 章

  147. 00:55:41.004 : en:第 13 章

  148. 01:01:14.712 : en:第 14 章

  149. 01:05:39.185 : en:第 15 章

  150. 01:09:01.095 : en:第 16 章

  151. 01:16:49.938 : en:第 17 章

  152. 01:21:07.487 : en:第 18 章

  153. 01:27:24.238 : en:第 19 章

  154. 01:33:30.938 : en:第 20 章

  155. 01:37:08.030 : en:第 21 章

  156. 01:46:48.110 : en:第 22 章

  157. 01:52:11.725 : en:第 23 章

  158. 01:55:52.070 : en:第 24 章




复制代码



文件下载


除非特别注明,本文『寂静岭[共2部合集][国英多音轨/简繁英字幕].Silent.Hill.1-2.2006-2012.BluRay.1080p.DTS-HD.MA.5.1.x265.10bit-ALT 17.91GB』来源于互联网机器人自动抓取,非本站原创。 浮游电影网不对本文拥有版权,如有侵犯,请联系邮箱:fuyouu#yandex.com[#换成@]投诉。我们会在15个工作日内删除。 但烦请转载时请标明出处:“本文转载于『浮游电影网』,原文地址:https://www.fuyouu.com/21767.html

评论吧骚年!

发表你的见解   

昵称*

E-mail*(建议输入,以便收到博主回复的提示邮件)

验证码*

您可以使用eMule或eMule Mod(Windows)、aMule(Win、Linux、Mac)等软件下载eD2k链接。。
eMule收藏集(.emulecollection)文件是您选中的所有链接的列表文件。eMule可以直接下载它们。
按住SHIFT键选择可以选中多个选择框。
可用文件名和大小选择器来选择文件。
文件名选择器帮您根据文件名称或后缀来选择文件。不分大小写。
符号使用:
和:空格( )、+
不包含:-
或:|
转义:一对英文引号("");
匹配开头:^
匹配结尾:$
例如:
选中所有名称中包含有“eMule”或“0.49c”字眼,但不包含有“exe”字眼的:emule|0.49c -exe
选中所有名称的开头是“eMule”,结尾是“0.49c”的:^emule 0.49c$
选中所有名称中带有“eMule 0.49c”的(必须是“eMule 0.49c”,中间没有别的字符,不能是“eMule fake 0.49c”),需要转义:"emule 0.49c"
大小选择器帮您根据文件大小选择文件。