当前位置: 首页 >> 欧美电影 >> 锡尔弗顿之围[中英字幕].Silverton.Siege.2022.1080p.NF.WEB-DL.DDP.5.1.Atmos.H.264-CTRLWEB 2.51GB >> 正文

锡尔弗顿之围[中英字幕].Silverton.Siege.2022.1080p.NF.WEB-DL.DDP.5.1.Atmos.H.264-CTRLWEB 2.51GB

2022年04月28日 13:09:27     电影发布:来源于网络     电影分类:欧美电影     评论(0)    

◎译 名 锡尔弗顿之围 / 希维顿围城(台) / 南非银行围堵事件(港)

◎片 名 Silverton Siege

◎年 代 2022

◎产 地 美国

◎类 别 动作 / 惊悚

◎语 言 英语

◎上映日期 2022-04-27(美国)

◎IMDb链接 https://www.imdb.com/title/tt18563148/

◎豆瓣链接 https://movie.douban.com/subject/35813554/

◎片 长 100分钟

◎演 员 阿诺德·沃斯洛 Arnold Vosloo (id:1017973)

◎简 介

在执行一次破坏加油站的重大任务时,三名 Umkhonto weSizwe (MK) 自由战士意识到他们惨遭陷害,警察已经做好了随时逮捕他们的准备。警察对他们展开了激烈的殊死追捕,他们被迫躲在银行内避难。

这三人一致认为,有人 — 也许他们中的一人 — 是“Impimpi”,即出卖团队的警察间谍。问题是,这个人会是谁?在银行里,他们之间的压力和紧张感越来越强烈。所有参与其中的人都有一个共同点:为自由而战。三人意识到他们唯一的选择是被捕或死亡,他们决定就释放纳尔逊·曼德拉进行谈判。

  1. ##### MediaInfo ######

  2. General

  3. Unique ID : 118343387436494410044069855240514590324 (0x59081B7BD757B9C29371B1EC7C025674)

  4. Complete name : Silverton.Siege.2022.1080p.NF.WEB-DL.DDP.5.1.Atmos.H.264-CTRLWEB.mkv

  5. Format : Matroska

  6. Format version : Version 4

  7. File size : 2.51 GiB

  8. Duration : 1 h 41 min

  9. Overall bit rate mode : Variable

  10. Overall bit rate : 3 558 kb/s

  11. Encoded date : UTC 2022-04-27 08:00:17

  12. Writing application : mkvmerge v65.0.0 ('Too Much') 64-bit

  13. Writing library : libebml v1.4.2 + libmatroska v1.6.4


  14. Video

  15. ID : 1

  16. Format : AVC

  17. Format/Info : Advanced Video Codec

  18. Format profile : [email protected]

  19. Format settings : CABAC / 3 Ref Frames

  20. Format settings, CABAC : Yes

  21. Format settings, Reference frames : 3 frames

  22. Codec ID : V_MPEG4/ISO/AVC

  23. Duration : 1 h 41 min

  24. Bit rate mode : Variable

  25. Bit rate : 2 784 kb/s

  26. Nominal bit rate : 3 320 kb/s

  27. Maximum bit rate : 4 980 kb/s

  28. Width : 1 920 pixels

  29. Height : 1 080 pixels

  30. Display aspect ratio : 16:9

  31. Frame rate mode : Constant

  32. Frame rate : 24.000 FPS

  33. Color space : YUV

  34. Chroma subsampling : 4:2:0

  35. Bit depth : 8 bits

  36. Scan type : Progressive

  37. Bits/(Pixel*Frame) : 0.056

  38. Stream size : 1.96 GiB (78%)

  39. Writing library : x264 core 148 r2727 7d026e8

  40. Encoding settings : cabac=1 / ref=3 / deblock=1:0:0 / analyse=0x1:0x111 / me=umh / subme=10 / psy=1 / psy_rd=1.00:0.00 / mixed_ref=1 / me_range=24 / chroma_me=1 / trellis=2 / 8x8dct=0 / cqm=0 / deadzone=21,11 / fast_pskip=1 / chroma_qp_offset=-2 / threads=8 / lookahead_threads=1 / sliced_threads=0 / nr=0 / decimate=1 / interlaced=0 / NTMzNTQ= / bluray_compat=0 / stitchable=1 / constrained_intra=0 / bframes=2 / b_pyramid=0 / b_adapt=2 / b_bias=0 / direct=3 / weightb=1 / open_gop=0 / weightp=2 / keyint=250 / keyint_min=24 / scenecut=0 / intra_refresh=0 / rc_lookahead=48 / rc=2pass / mbtree=1 / bitrate=3320 / ratetol=1.0 / qcomp=0.50 / qpmin=6 / qpmax=51 / qpstep=4 / cplxblur=20.0 / qblur=0.5 / vbv_maxrate=4980 / vbv_bufsize=6640 / nal_hrd=vbr / filler=0 / NTMzNTQ=LmsMAP37EqsCpk / ip_ratio=1.40 / aq=1:1.00

  41. Language : English

  42. Default : Yes

  43. Forced : No


  44. Audio

  45. ID : 2

  46. Format : E-AC-3 JOC

  47. Format/Info : Enhanced AC-3 with Joint Object Coding

  48. Commercial name : Dolby Digital Plus with Dolby Atmos

  49. Codec ID : A_EAC3

  50. Duration : 1 h 41 min

  51. Bit rate mode : Constant

  52. Bit rate : 768 kb/s

  53. Channel(s) : 6 channels

  54. Channel layout : L R C LFE Ls Rs

  55. Sampling rate : 48.0 kHz

  56. Frame rate : 31.250 FPS (1536 SPF)

  57. Compression mode : Lossy

  58. Stream size : 555 MiB (22%)

  59. Language : English

  60. Service kind : Complete Main

  61. Default : Yes

  62. Forced : No

  63. Complexity index : 16

  64. Number of dynamic objects : 15

  65. Bed channel count : 1 channel

  66. Bed channel configuration : LFE


  67. Text #1

  68. ID : 3

  69. Format : UTF-8

  70. Codec ID : S_TEXT/UTF8

  71. Codec ID/Info : UTF-8 Plain Text

  72. Duration : 1 h 32 min

  73. Bit rate : 8 b/s

  74. Count of elements : 252

  75. Stream size : 5.86 KiB (0%)

  76. Title : Forced

  77. Language : English

  78. Default : Yes

  79. Forced : Yes


  80. Text #2

  81. ID : 4

  82. Format : UTF-8

  83. Codec ID : S_TEXT/UTF8

  84. Codec ID/Info : UTF-8 Plain Text

  85. Duration : 1 h 37 min

  86. Bit rate : 64 b/s

  87. Count of elements : 1652

  88. Stream size : 46.3 KiB (0%)

  89. Title : SDH

  90. Language : English

  91. Default : No

  92. Forced : No


  93. Text #3

  94. ID : 5

  95. Format : UTF-8

  96. Codec ID : S_TEXT/UTF8

  97. Codec ID/Info : UTF-8 Plain Text

  98. Duration : 1 h 40 min

  99. Bit rate : 86 b/s

  100. Count of elements : 1396

  101. Stream size : 63.4 KiB (0%)

  102. Language : Arabic

  103. Default : No

  104. Forced : No


  105. Text #4

  106. ID : 6

  107. Format : UTF-8

  108. Codec ID : S_TEXT/UTF8

  109. Codec ID/Info : UTF-8 Plain Text

  110. Duration : 1 h 40 min

  111. Bit rate : 45 b/s

  112. Count of elements : 1289

  113. Stream size : 33.6 KiB (0%)

  114. Language : Czech

  115. Default : No

  116. Forced : No


  117. Text #5

  118. ID : 7

  119. Format : UTF-8

  120. Codec ID : S_TEXT/UTF8

  121. Codec ID/Info : UTF-8 Plain Text

  122. Duration : 1 h 40 min

  123. Bit rate : 46 b/s

  124. Count of elements : 1336

  125. Stream size : 33.7 KiB (0%)

  126. Language : Danish

  127. Default : No

  128. Forced : No


  129. Text #6

  130. ID : 8

  131. Format : UTF-8

  132. Codec ID : S_TEXT/UTF8

  133. Codec ID/Info : UTF-8 Plain Text

  134. Duration : 1 h 40 min

  135. Bit rate : 47 b/s

  136. Count of elements : 1327

  137. Stream size : 34.5 KiB (0%)

  138. Language : German

  139. Default : No

  140. Forced : No


  141. Text #7

  142. ID : 9

  143. Format : UTF-8

  144. Codec ID : S_TEXT/UTF8

  145. Codec ID/Info : UTF-8 Plain Text

  146. Duration : 1 h 40 min

  147. Bit rate : 78 b/s

  148. Count of elements : 1406

  149. Stream size : 57.9 KiB (0%)

  150. Language : Greek

  151. Default : No

  152. Forced : No


  153. Text #8

  154. ID : 10

  155. Format : UTF-8

  156. Codec ID : S_TEXT/UTF8

  157. Codec ID/Info : UTF-8 Plain Text

  158. Duration : 1 h 40 min

  159. Bit rate : 46 b/s

  160. Count of elements : 1364

  161. Stream size : 34.1 KiB (0%)

  162. Language : Spanish

  163. Default : No

  164. Forced : No


  165. Text #9

  166. ID : 11

  167. Format : UTF-8

  168. Codec ID : S_TEXT/UTF8

  169. Codec ID/Info : UTF-8 Plain Text

  170. Duration : 1 h 40 min

  171. Bit rate : 47 b/s

  172. Count of elements : 1395

  173. Stream size : 35.1 KiB (0%)

  174. Title : Europe

  175. Language : Spanish

  176. Default : No

  177. Forced : No


  178. Text #10

  179. ID : 12

  180. Format : UTF-8

  181. Codec ID : S_TEXT/UTF8

  182. Codec ID/Info : UTF-8 Plain Text

  183. Duration : 1 h 40 min

  184. Bit rate : 46 b/s

  185. Count of elements : 1295

  186. Stream size : 34.2 KiB (0%)

  187. Language : Finnish

  188. Default : No

  189. Forced : No


  190. Text #11

  191. ID : 13

  192. Format : UTF-8

  193. Codec ID : S_TEXT/UTF8

  194. Codec ID/Info : UTF-8 Plain Text

  195. Duration : 1 h 40 min

  196. Bit rate : 44 b/s

  197. Count of elements : 1247

  198. Stream size : 32.7 KiB (0%)

  199. Language : French

  200. Default : No

  201. Forced : No


  202. Text #12

  203. ID : 14

  204. Format : UTF-8

  205. Codec ID : S_TEXT/UTF8

  206. Codec ID/Info : UTF-8 Plain Text

  207. Duration : 1 h 40 min

  208. Bit rate : 77 b/s

  209. Count of elements : 1308

  210. Stream size : 56.6 KiB (0%)

  211. Language : Hebrew

  212. Default : No

  213. Forced : No


  214. Text #13

  215. ID : 15

  216. Format : UTF-8

  217. Codec ID : S_TEXT/UTF8

  218. Codec ID/Info : UTF-8 Plain Text

  219. Duration : 1 h 40 min

  220. Bit rate : 41 b/s

  221. Count of elements : 1410

  222. Stream size : 30.1 KiB (0%)

  223. Language : Croatian

  224. Default : No

  225. Forced : No


  226. Text #14

  227. ID : 16

  228. Format : UTF-8

  229. Codec ID : S_TEXT/UTF8

  230. Codec ID/Info : UTF-8 Plain Text

  231. Duration : 1 h 40 min

  232. Bit rate : 45 b/s

  233. Count of elements : 1382

  234. Stream size : 33.1 KiB (0%)

  235. Language : Hungarian

  236. Default : No

  237. Forced : No


  238. Text #15

  239. ID : 17

  240. Format : UTF-8

  241. Codec ID : S_TEXT/UTF8

  242. Codec ID/Info : UTF-8 Plain Text

  243. Duration : 1 h 40 min

  244. Bit rate : 48 b/s

  245. Count of elements : 1383

  246. Stream size : 35.3 KiB (0%)

  247. Language : Indonesian

  248. Default : No

  249. Forced : No


  250. Text #16

  251. ID : 18

  252. Format : UTF-8

  253. Codec ID : S_TEXT/UTF8

  254. Codec ID/Info : UTF-8 Plain Text

  255. Duration : 1 h 40 min

  256. Bit rate : 43 b/s

  257. Count of elements : 1266

  258. Stream size : 31.8 KiB (0%)

  259. Language : Italian

  260. Default : No

  261. Forced : No


  262. Text #17

  263. ID : 19

  264. Format : UTF-8

  265. Codec ID : S_TEXT/UTF8

  266. Codec ID/Info : UTF-8 Plain Text

  267. Duration : 1 h 40 min

  268. Bit rate : 48 b/s

  269. Count of elements : 1455

  270. Stream size : 35.5 KiB (0%)

  271. Language : Japanese

  272. Default : No

  273. Forced : No


  274. Text #18

  275. ID : 20

  276. Format : UTF-8

  277. Codec ID : S_TEXT/UTF8

  278. Codec ID/Info : UTF-8 Plain Text

  279. Duration : 1 h 40 min

  280. Bit rate : 65 b/s

  281. Count of elements : 1470

  282. Stream size : 47.7 KiB (0%)

  283. Language : Korean

  284. Default : No

  285. Forced : No


  286. Text #19

  287. ID : 21

  288. Format : UTF-8

  289. Codec ID : S_TEXT/UTF8

  290. Codec ID/Info : UTF-8 Plain Text

  291. Duration : 1 h 33 min

  292. Bit rate : 50 b/s

  293. Count of elements : 1412

  294. Stream size : 34.4 KiB (0%)

  295. Language : Malay

  296. Default : No

  297. Forced : No


  298. Text #20

  299. ID : 22

  300. Format : UTF-8

  301. Codec ID : S_TEXT/UTF8

  302. Codec ID/Info : UTF-8 Plain Text

  303. Duration : 1 h 40 min

  304. Bit rate : 42 b/s

  305. Count of elements : 1100

  306. Stream size : 31.1 KiB (0%)

  307. Language : Norwegian Bokmal

  308. Default : No

  309. Forced : No


  310. Text #21

  311. ID : 23

  312. Format : UTF-8

  313. Codec ID : S_TEXT/UTF8

  314. Codec ID/Info : UTF-8 Plain Text

  315. Duration : 1 h 40 min

  316. Bit rate : 46 b/s

  317. Count of elements : 1302

  318. Stream size : 34.4 KiB (0%)

  319. Language : Dutch

  320. Default : No

  321. Forced : No


  322. Text #22

  323. ID : 24

  324. Format : UTF-8

  325. Codec ID : S_TEXT/UTF8

  326. Codec ID/Info : UTF-8 Plain Text

  327. Duration : 1 h 40 min

  328. Bit rate : 41 b/s

  329. Count of elements : 1342

  330. Stream size : 30.6 KiB (0%)

  331. Language : Polish

  332. Default : No

  333. Forced : No


  334. Text #23

  335. ID : 25

  336. Format : UTF-8

  337. Codec ID : S_TEXT/UTF8

  338. Codec ID/Info : UTF-8 Plain Text

  339. Duration : 1 h 40 min

  340. Bit rate : 46 b/s

  341. Count of elements : 1350

  342. Stream size : 33.8 KiB (0%)

  343. Language : Portuguese

  344. Default : No

  345. Forced : No


  346. Text #24

  347. ID : 26

  348. Format : UTF-8

  349. Codec ID : S_TEXT/UTF8

  350. Codec ID/Info : UTF-8 Plain Text

  351. Duration : 1 h 40 min

  352. Bit rate : 45 b/s

  353. Count of elements : 1341

  354. Stream size : 33.6 KiB (0%)

  355. Title : Brazil

  356. Language : Portuguese

  357. Default : No

  358. Forced : No


  359. Text #25

  360. ID : 27

  361. Format : UTF-8

  362. Codec ID : S_TEXT/UTF8

  363. Codec ID/Info : UTF-8 Plain Text

  364. Duration : 1 h 39 min

  365. Bit rate : 50 b/s

  366. Count of elements : 1171

  367. Stream size : 36.8 KiB (0%)

  368. Language : Romanian

  369. Default : No

  370. Forced : No


  371. Text #26

  372. ID : 28

  373. Format : UTF-8

  374. Codec ID : S_TEXT/UTF8

  375. Codec ID/Info : UTF-8 Plain Text

  376. Duration : 1 h 40 min

  377. Bit rate : 78 b/s

  378. Count of elements : 1332

  379. Stream size : 57.3 KiB (0%)

  380. Language : Russian

  381. Default : No

  382. Forced : No


  383. Text #27

  384. ID : 29

  385. Format : UTF-8

  386. Codec ID : S_TEXT/UTF8

  387. Codec ID/Info : UTF-8 Plain Text

  388. Duration : 1 h 40 min

  389. Bit rate : 45 b/s

  390. Count of elements : 1174

  391. Stream size : 33.5 KiB (0%)

  392. Language : Swedish

  393. Default : No

  394. Forced : No


  395. Text #28

  396. ID : 30

  397. Format : UTF-8

  398. Codec ID : S_TEXT/UTF8

  399. Codec ID/Info : UTF-8 Plain Text

  400. Duration : 1 h 40 min

  401. Bit rate : 123 b/s

  402. Count of elements : 1408

  403. Stream size : 90.5 KiB (0%)

  404. Language : Thai

  405. Default : No

  406. Forced : No


  407. Text #29

  408. ID : 31

  409. Format : UTF-8

  410. Codec ID : S_TEXT/UTF8

  411. Codec ID/Info : UTF-8 Plain Text

  412. Duration : 1 h 40 min

  413. Bit rate : 43 b/s

  414. Count of elements : 1381

  415. Stream size : 31.9 KiB (0%)

  416. Language : Turkish

  417. Default : No

  418. Forced : No


  419. Text #30

  420. ID : 32

  421. Format : UTF-8

  422. Codec ID : S_TEXT/UTF8

  423. Codec ID/Info : UTF-8 Plain Text

  424. Duration : 1 h 39 min

  425. Bit rate : 72 b/s

  426. Count of elements : 1397

  427. Stream size : 53.1 KiB (0%)

  428. Language : Ukrainian

  429. Default : No

  430. Forced : No


  431. Text #31

  432. ID : 33

  433. Format : UTF-8

  434. Codec ID : S_TEXT/UTF8

  435. Codec ID/Info : UTF-8 Plain Text

  436. Duration : 1 h 40 min

  437. Bit rate : 69 b/s

  438. Count of elements : 1299

  439. Stream size : 50.9 KiB (0%)

  440. Language : Vietnamese

  441. Default : No

  442. Forced : No


  443. Text #32

  444. ID : 34

  445. Format : UTF-8

  446. Codec ID : S_TEXT/UTF8

  447. Codec ID/Info : UTF-8 Plain Text

  448. Duration : 1 h 40 min

  449. Bit rate : 52 b/s

  450. Count of elements : 1410

  451. Stream size : 38.5 KiB (0%)

  452. Title : Simplified

  453. Language : Chinese

  454. Default : No

  455. Forced : No


  456. Text #33

  457. ID : 35

  458. Format : UTF-8

  459. Codec ID : S_TEXT/UTF8

  460. Codec ID/Info : UTF-8 Plain Text

  461. Duration : 1 h 40 min

  462. Bit rate : 49 b/s

  463. Count of elements : 1419

  464. Stream size : 36.3 KiB (0%)

  465. Title : Traditional

  466. Language : Chinese

  467. Default : No

  468. Forced : No




复制代码



文件下载


除非特别注明,本文『锡尔弗顿之围[中英字幕].Silverton.Siege.2022.1080p.NF.WEB-DL.DDP.5.1.Atmos.H.264-CTRLWEB 2.51GB』来源于互联网机器人自动抓取,非本站原创。 浮游电影网不对本文拥有版权,如有侵犯,请联系邮箱:fuyouu#yandex.com[#换成@]投诉。我们会在15个工作日内删除。 但烦请转载时请标明出处:“本文转载于『浮游电影网』,原文地址:https://www.fuyouu.com/21748.html

评论吧骚年!

发表你的见解   

昵称*

E-mail*(建议输入,以便收到博主回复的提示邮件)

验证码*

您可以使用eMule或eMule Mod(Windows)、aMule(Win、Linux、Mac)等软件下载eD2k链接。。
eMule收藏集(.emulecollection)文件是您选中的所有链接的列表文件。eMule可以直接下载它们。
按住SHIFT键选择可以选中多个选择框。
可用文件名和大小选择器来选择文件。
文件名选择器帮您根据文件名称或后缀来选择文件。不分大小写。
符号使用:
和:空格( )、+
不包含:-
或:|
转义:一对英文引号("");
匹配开头:^
匹配结尾:$
例如:
选中所有名称中包含有“eMule”或“0.49c”字眼,但不包含有“exe”字眼的:emule|0.49c -exe
选中所有名称的开头是“eMule”,结尾是“0.49c”的:^emule 0.49c$
选中所有名称中带有“eMule 0.49c”的(必须是“eMule 0.49c”,中间没有别的字符,不能是“eMule fake 0.49c”),需要转义:"emule 0.49c"
大小选择器帮您根据文件大小选择文件。