当前位置: 首页 >> 欧美电影 >> 惊爆点[繁英字幕].Point.Break.1991.BluRay.1080p.DTS-HD.MA5.1.x265.10bit-ALT 13.51GB >> 正文

惊爆点[繁英字幕].Point.Break.1991.BluRay.1080p.DTS-HD.MA5.1.x265.10bit-ALT 13.51GB

2022年04月28日 13:08:30     电影发布:来源于网络     电影分类:欧美电影     评论(0)    

◎译 名 惊爆点 / 人生断点 / 终极豪情 / 爆破点 / 惊暴点

◎片 名 Point Break

◎年 代 1991

◎产 地 美国 / 日本

◎类 别 动作 / 惊悚 / 犯罪

◎语 言 英语

◎上映日期 1991-07-12(美国)

◎IMDb链接 https://www.imdb.com/title/tt0102685/

◎豆瓣评分 7.4/10 (7779人评价)

◎豆瓣链接 https://movie.douban.com/subject/1301161/

◎片 长 122分钟

◎导 演 凯瑟琳·毕格罗 Kathryn Bigelow (id:1053565)

◎编 剧 瑞克·金 Rick King (id:1276499)

W·彼得·伊利夫 W. Peter Iliff (id:1324299)

◎演 员 帕特里克·斯威兹 Patrick Swayze (id:1022580)

基努·里维斯 Keanu Reeves (id:1008070)

加里·布塞 Gary Busey (id:1010573)

罗莉·佩蒂 Lori Petty (id:1027827)

约翰·C·麦金雷 John C. McGinley (id:1025189)

詹姆斯·勒格罗 James LeGros (id:1055191)

加琳·格罗 Galyn G?rg (id:1012551)

李·特格森 Lee Tergesen (id:1010629)

杰克·科勒尔 Jack Kehler (id:1288307)

Jared Chandler Jared Chandler (id:1010049)

丹尼尔·比尔 Daniel Beer (id:1446401)

安东尼·曼加诺 Anthony Mangano (id:1406431)

Julian Reyes Julian Reyes (id:1143986)

Peter Phelps Peter Phelps (id:1050325)

Mark Atienza Mark Atienza (id:1277535)

Bret Culpepper Bret Culpepper (id:1074760)

安东尼·凯迪斯 Anthony Kiedis (id:1040744)

Betsy Lynn George Betsy Lynn George (id:1094083)

黛布拉莱恩 Debra Lamb (id:1103960)

克里斯托弗·贝迪特 Christopher Pettiet (id:1132598)

Gary Roberts Gary Roberts (id:1144848)

Sydney Walsh Sydney Walsh (id:1162841)

汤姆·塞兹摩尔 Tom Sizemore (id:1036371)

Rich Hopkins Rich Hopkins (id:1176068)

约翰·亚皮赛拉 John Apicella (id:1060869)

理查德·格里夫 Richard Grove (id:1452466)

瑞克·金 Rick King (id:1276499)

詹姆斯·卡梅隆 James Cameron (id:1022571)

马克·艾沙姆 Mark Isham (id:1050293)

唐纳德·彼得曼 Donald Peterman (id:1294353)

霍华德·E·史密斯 Howard E. Smith (id:1037969)

Richard Pagano Richard Pagano (id:1293795)

Sharon Bialy Sharon Bialy (id:1278589)

琳达·斯菲里斯 Linda Spheeris (id:1298147)

Dino Ganziano Dino Ganziano (id:1284482)

邦尼·帕克尔 Bunny Parker (id:1293970)

Wes Dawn Wes Dawn (id:1089003)

Greg LaCava Greg LaCava (id:1289202)

保罗·艾巴斯卡 Paul Abascal (id:1050836)

Glenn R. Wilder Glenn R. Wilder (id:1167391)

Chitra F. Mojtabai Chitra F. Mojtabai (id:1276246)

詹姆斯·弗雷塔格 James M. Freitag (id:1284167)

Gregory L. McMurry Gregory L. McMurry (id:1001651)

理查德·E·霍兰德尔 Richard E. Hollander (id:1286808)

Rhonda C. Gunner Rhonda C. Gunner (id:1285640)

◎简 介

约翰尼(基努·李维斯 Keanu Reeves 饰)是一名FBI探员,正在与老搭档帕帕斯(加里·布塞 Gary Busey 饰)着手调查一系列银行抢劫案。然而这个狡猾的犯罪团伙行事严谨精明,每次犯案均用多位前任总统的面具伪装自己。约翰尼手上唯一的线索只是帕帕斯的推理:罪犯很可能是冲浪爱好者。为了尽快侦破此案,约翰尼决定到海滩学习冲浪以寻找线索,在此过程中,约翰尼结识了冲浪高手普提(帕特里克·斯威兹 Patrick Swayze 饰)和泰勒(罗莉·佩蒂 Lori Petty 饰),他被普提的思想魅力和领袖气息所吸引,爱上了冲浪这项刺激的运动,并与一帮冲浪爱好者结下深厚友谊。然而,在种种相处的细节之中,约翰尼渐渐开始怀疑这帮优秀的朋友就是他要找的神秘团伙……

  1. ##### MediaInfo ######

  2. General

  3. Unique ID : 145017980669898507716467978159692703859 (0x6D19727812C1C63596FD9E303FAFE873)

  4. Complete name : Point.Break.1991.BluRay.1080p.DTS-HD.MA5.1.x265.10bit-ALT.mkv

  5. Format : Matroska

  6. Format version : Version 4

  7. File size : 13.5 GiB

  8. Duration : 2 h 2 min

  9. Overall bit rate mode : Variable

  10. Overall bit rate : 15.8 Mb/s

  11. Encoded date : UTC 2022-04-27 10:29:37

  12. Writing application : mkvmerge v49.0.0 ('Sick Of Losing Soulmates') 64-bit

  13. Writing library : libebml v1.4.0 + libmatroska v1.6.1


  14. Video

  15. ID : 1

  16. Format : HEVC

  17. Format/Info : High Efficiency Video Coding

  18. Format profile : Main [email protected]@High

  19. Codec ID : V_MPEGH/ISO/HEVC

  20. Duration : 2 h 2 min

  21. Bit rate : 11.4 Mb/s

  22. Width : 1 920 pixels

  23. Height : 812 pixels

  24. Display aspect ratio : 2.35:1

  25. Frame rate mode : Constant

  26. Frame rate : 23.976 (24000/1001/53354) FPS

  27. Color space : YUV

  28. Chroma subsampling : 4:2:0

  29. Bit depth : 10 bits

  30. Bits/(Pixel*Frame) : 0.305

  31. Stream size : 9.74 GiB (72%)

  32. Title : HEVC, [email protected]@High, 24/1.001 fps @ 11415 kbps

  33. Writing library : x265 3.5+36-1f2c8da77:[Windows][GCC 11.2.0][64 bit] 10bit

  34. Encoding settings : cpuid=533541111039 / frame-threads=4 / numa-pools=16 / wpp / pmode / pme / no-psnr / no-ssim / log-level=2 / input-csp=1 / input-res=1920x812 / interlace=0 / total-frames=175641 / level-idc=51 / high-tier=1 / uhd-bd=0 / ref=5 / no-allow-non-conformance / no-repeat-headers / annexb / no-aud / no-eob / no-eos / no-hrd / info / hash=0 / no-temporal-layers / open-gop / min-keyint=24 / keyint=240 / gop-lookahead=0 / bframes=6 / b-adapt=2 / b-pyramid / bframe-bias=0 / rc-lookahead=40 / lookahead-slices=0 / NTMzNTQ=uuDQuD2mJt9fsCf / scenecut=40 / no-hist-scenecut / radl=0 / no-splice / no-intra-refresh / ctu=32 / min-cu-size=8 / no-rect / no-amp / max-tu-size=32 / tu-inter-depth=3 / tu-intra-depth=3 / limit-tu=4 / rdoq-level=2 / dynamic-rd=0.00 / no-ssim-rd / signhide / no-tskip / nr-intra=0 / nr-inter=0 / no-constrained-intra / no-strong-intra-smoothing / max-merge=4 / limit-refs=1 / limit-modes / me=3 / subme=4 / merange=25 / temporal-mvp / no-frame-dup / no-hme / weightp / weightb / no-analyze-src-pics / deblock=-3:-3 / no-sao / no-sao-non-deblock / rd=6 / selective-sao=0 / no-early-skip / rskip / no-fast-intra / no-tskip-fast / no-cu-lossless / b-intra / no-splitrd-skip / rdpenalty=0 / psy-rd=2.00 / psy-rdoq=1.00 / no-rd-refine / no-lossless / cbqpoffs=0 / crqpoffs=0 / rc=crf / crf=17.0 / qcomp=0.65 / qpstep=4 / stats-write=0 / stats-read=0 / vbv-maxrate=80000 / vbv-bufsize=80000 / vbv-init=0.9 / min-vbv-fullness=50.0 / max-vbv-fullness=80.0 / crf-max=0.0 / crf-min=0.0 / ipratio=1.40 / pbratio=1.30 / aq-mode=2 / aq-strength=0.85 / cutree / zone-count=0 / no-strict-cbr / qg-size=32 / no-rc-grain / qpmax=69 / qpmin=0 / no-const-vbv / sar=1 / overscan=0 / videoformat=5 / range=0 / colorprim=1 / transfer=1 / colormatrix=1 / chromaloc=0 / display-window=0 / cll=0,0 / min-luma=0 / max-luma=1023 / log2-max-poc-lsb=8 / vui-timing-info / vui-hrd-info / slices=1 / no-opt-qp-pps / no-opt-ref-list-length-pps / no-multi-pass-opt-rps / scenecut-bias=0.05 / hist-threshold=0.03 / no-opt-cu-delta-qp / no-aq-motion / no-hdr10 / no-hdr10-opt / no-dhdr10-opt / no-idr-recovery-sei / analysis-reuse-level=0 / analysis-save-reuse-level=0 / analysis-load-reuse-level=0 / scale-factor=0 / refine-intra=0 / refine-inter=0 / refine-mv=1 / refine-ctu-distortion=0 / no-limit-sao / ctu-info=0 / no-lowpass-dct / refine-analysis-type=0 / copy-pic=1 / max-ausize-factor=1.0 / no-dynamic-refine / no-single-sei / no-hevc-aq / no-svt / no-field / qp-adaptation-range=1.00 / scenecut-aware-qp=0conformance-window-offsets / right=0 / bottom=0 / NTMzNTQ= / decoder-max-rate=0 / no-vbv-live-multi-pass

  35. Language : English

  36. Default : Yes

  37. Forced : No

  38. Color range : Limited

  39. Color primaries : BT.709

  40. Transfer characteristics : BT.709

  41. Matrix coefficients : BT.709


  42. Audio

  43. ID : 2

  44. Format : DTS XLL

  45. Format/Info : Digital Theater Systems

  46. Commercial name : DTS-HD Master Audio

  47. Codec ID : A_DTS

  48. Duration : 2 h 2 min

  49. Bit rate mode : Variable

  50. Bit rate : 4 303 kb/s

  51. Channel(s) : 6 channels

  52. Channel layout : C L R Ls Rs LFE

  53. Sampling rate : 48.0 kHz

  54. Frame rate : 93.750 FPS (512 SPF)

  55. Bit depth : 24 bits

  56. Compression mode : Lossless

  57. Stream size : 3.67 GiB (27%)

  58. Title : English DTS-HD Master Audio 5.1 @ 4303 kbps

  59. Language : English

  60. Default : Yes

  61. Forced : No


  62. Text #1

  63. ID : 3

  64. Format : PGS

  65. Codec ID : S_HDMV/PGS

  66. Codec ID/Info : Picture based subtitle format used on BDs/HD-DVDs

  67. Duration : 2 h 0 min

  68. Bit rate : 60.0 kb/s

  69. Count of elements : 3367

  70. Stream size : 51.7 MiB (0%)

  71. Title : Eng/SUP

  72. Language : English

  73. Default : No

  74. Forced : No


  75. Text #2

  76. ID : 4

  77. Format : PGS

  78. Codec ID : S_HDMV/PGS

  79. Codec ID/Info : Picture based subtitle format used on BDs/HD-DVDs

  80. Duration : 1 h 56 min

  81. Bit rate : 60.6 kb/s

  82. Count of elements : 3040

  83. Stream size : 50.6 MiB (0%)

  84. Title : Cht/SUP 原盘繁体

  85. Language : Chinese

  86. Default : Yes

  87. Forced : No


  88. Menu

  89. 00:00:00.000 : en:第 01 章

  90. 00:03:08.188 : en:第 02 章

  91. 00:06:18.336 : en:第 03 章

  92. 00:09:38.161 : en:第 04 章

  93. 00:13:25.221 : en:第 05 章

  94. 00:16:44.128 : en:第 06 章

  95. 00:20:59.008 : en:第 07 章

  96. 00:24:04.735 : en:第 08 章

  97. 00:27:35.946 : en:第 09 章

  98. 00:31:05.822 : en:第 10 章

  99. 00:39:00.588 : en:第 11 章

  100. 00:43:33.694 : en:第 12 章

  101. 00:49:32.887 : en:第 13 章

  102. 00:58:36.221 : en:第 14 章

  103. 01:02:16.566 : en:第 15 章

  104. 01:10:29.559 : en:第 16 章

  105. 01:16:42.223 : en:第 17 章

  106. 01:23:43.477 : en:第 18 章

  107. 01:27:15.939 : en:第 19 章

  108. 01:34:51.311 : en:第 20 章

  109. 01:41:14.276 : en:第 21 章

  110. 01:50:13.690 : en:第 22 章

  111. 01:55:20.956 : en:第 23 章

  112. 01:58:36.443 : en:第 24 章




复制代码



文件下载


除非特别注明,本文『惊爆点[繁英字幕].Point.Break.1991.BluRay.1080p.DTS-HD.MA5.1.x265.10bit-ALT 13.51GB』来源于互联网机器人自动抓取,非本站原创。 浮游电影网不对本文拥有版权,如有侵犯,请联系邮箱:fuyouu#yandex.com[#换成@]投诉。我们会在15个工作日内删除。 但烦请转载时请标明出处:“本文转载于『浮游电影网』,原文地址:https://www.fuyouu.com/21747.html

评论吧骚年!

发表你的见解   

昵称*

E-mail*(建议输入,以便收到博主回复的提示邮件)

验证码*

您可以使用eMule或eMule Mod(Windows)、aMule(Win、Linux、Mac)等软件下载eD2k链接。。
eMule收藏集(.emulecollection)文件是您选中的所有链接的列表文件。eMule可以直接下载它们。
按住SHIFT键选择可以选中多个选择框。
可用文件名和大小选择器来选择文件。
文件名选择器帮您根据文件名称或后缀来选择文件。不分大小写。
符号使用:
和:空格( )、+
不包含:-
或:|
转义:一对英文引号("");
匹配开头:^
匹配结尾:$
例如:
选中所有名称中包含有“eMule”或“0.49c”字眼,但不包含有“exe”字眼的:emule|0.49c -exe
选中所有名称的开头是“eMule”,结尾是“0.49c”的:^emule 0.49c$
选中所有名称中带有“eMule 0.49c”的(必须是“eMule 0.49c”,中间没有别的字符,不能是“eMule fake 0.49c”),需要转义:"emule 0.49c"
大小选择器帮您根据文件大小选择文件。