当前位置: 首页 >> 欧美电影 >> 母女情深[简体字幕].Terms.of.Endearment.1983.1080p.BluRay.DTS.x265-10bit-ENTHD 8.13GB >> 正文

母女情深[简体字幕].Terms.of.Endearment.1983.1080p.BluRay.DTS.x265-10bit-ENTHD 8.13GB

2022年04月27日 15:48:49     电影发布:来源于网络     电影分类:欧美电影     评论(0)    

母女情深[简体字幕].Terms.of.Endearment.1983.1080p.BluRay.DTS.x265 10bit ENTHD 8.13GB  欧美电影  第1张

◎译 名 母女情深 / 亲密关系(台) / 常在我心间(港) / Tendres Passions

◎片 名 Terms of Endearment

◎年 代 1983

◎产 地 美国

◎类 别 剧情 / 喜剧 / 爱情 / 家庭

◎语 言 英语

◎上映日期 1983-12-09(美国)

◎IMDb链接 https://www.imdb.com/title/tt0086425/

◎豆瓣评分 8.0/10 (7306人评价)

◎豆瓣链接 https://movie.douban.com/subject/1293341/

◎片 长 132分钟

◎导 演 詹姆斯·L·布鲁克斯 James L. Brooks (id:1045001)

◎编 剧 詹姆斯·L·布鲁克斯 James L. Brooks (id:1045001)

◎演 员 雪莉·麦克雷恩 Shirley MacLaine (id:1048130)

德博拉·温格 Debra Winger (id:1044917)

杰克·尼科尔森 Jack Nicholson (id:1054528)

丹尼·德维托 Danny DeVito (id:1040516)

杰夫·丹尼尔斯 Jeff Daniels (id:1006974)

丽莎·哈特·卡罗尔 Lisa Hart Carroll (id:1422244)

Penney Finkelman Cox Penney Finkelman Cox (id:1283758)

安德泽·巴特科维卡 Andrzej Bartkowiak (id:1276546)

Ellen Chenoweth Ellen Chenoweth (id:1280600)

茱莉叶·泰勒 Juliet Taylor (id:1299000)

安东尼·蒙戴尔 Anthony Mondell (id:1292331)

哈罗德·迈克尔逊 Harold Michelson (id:1006326)

Marty P. Ewing Marty P. Ewing (id:1283370)

Albert M. Shapiro Albert M. Shapiro (id:1297321)

◎简 介

女儿艾玛(德博拉?温格 Debra Winger 饰)是妈妈奥罗拉(雪莉?麦克雷恩 Shirley MacLaine 饰)的心肝宝贝,自小开始,奥罗拉就帮艾玛安排好一切,艾玛的言谈举止、修饰打扮、学习、玩耍、交朋友等等都必须经过奥罗拉同意。

在丈夫早逝后,奥罗拉操持起家里的一切,对艾玛更加“专制”。艾玛虽然表明很温柔、软弱,但是内心却十分倔强。两母女也因此多次吵架。奥罗拉一直没再接受其他男人的追求,艾玛也在和母亲相依相偎、磕磕绊绊中长大。

长大后的艾玛开始极力摆脱母亲的“专制”:她不顾母亲的反对,嫁给了一个工作不稳定的研究生……她花了三十年去摆脱母亲的“专制”,到头来却发现自己对母亲的始终不忘的依依亲情。

◎获奖情况 (共11项)

第56届奥斯卡金像奖 (1984)

最佳影片

└──詹姆斯·L·布鲁克斯 (id:1045001)

最佳导演

└──詹姆斯·L·布鲁克斯 (id:1045001)

最佳女主角

└──雪莉·麦克雷恩 (id:1048130)

最佳女主角(提名)

└──德博拉·温格 (id:1044917)

最佳男配角

└──杰克·尼科尔森 (id:1054528)

最佳男配角(提名)

└──约翰·利思戈 (id:1027824)

最佳改编剧本

└──詹姆斯·L·布鲁克斯 (id:1045001)

最佳剪辑(提名)

└──理查德·马克斯 (id:1120890)

最佳音响(提名)

最佳艺术指导(提名)

最佳原创配乐(提名)

└──迈克尔·戈尔 (id:1032871)

  1. ##### MediaInfo ######

  2. General

  3. Unique ID : 315008535420723579245877608152947487501 (0xECFC6FE6782A3EE458F4B102E9FFF30D)

  4. Complete name : Terms.of.Endearment.1983.1080p.BluRay.DTS.x265-10bit-ENTHD.mkv

  5. Format : Matroska

  6. Format version : Version 4

  7. File size : 8.13 GiB

  8. Duration : 2 h 11 min

  9. Overall bit rate : 8 822 kb/s

  10. Movie name : Terms of Endearment 1983 1080p BluRay DTS x265-10bit-HDS

  11. Encoded date : UTC 2022-04-26 09:51:43

  12. Writing application : mkvmerge v38.0.0 ('The Silent Type') 64-bit

  13. Writing library : libebml v1.3.9 + libmatroska v1.5.2


  14. Video

  15. ID : 1

  16. Format : HEVC

  17. Format/Info : High Efficiency Video Coding

  18. Format profile : Main [email protected]@High

  19. Codec ID : V_MPEGH/ISO/HEVC

  20. Duration : 2 h 11 min

  21. Bit rate : 7 299 kb/s

  22. Width : 1 920 pixels

  23. Height : 1 080 pixels

  24. Display aspect ratio : 16:9

  25. Frame rate mode : Constant

  26. Frame rate : 23.976 (24000/1001/53354) FPS

  27. Color space : YUV

  28. Chroma subsampling : 4:2:0

  29. Bit depth : 10 bits

  30. Bits/(Pixel*Frame) : 0.147

  31. Stream size : 6.73 GiB (83%)

  32. Title : @HDSky

  33. Writing library : x265 - H.265/HEVC codec

  34. Default : Yes

  35. Forced : No


  36. Audio

  37. ID : 2

  38. Format : DTS

  39. Format/Info : Digital Theater Systems

  40. Codec ID : A_DTS

  41. Duration : 2 h 11 min

  42. Bit rate mode : Constant

  43. Bit rate : 1 509 kb/s

  44. Channel(s) : 6 channels

  45. Channel layout : C L R Ls Rs LFE

  46. Sampling rate : 48.0 kHz

  47. Frame rate : 93.750 FPS (512 SPF)

  48. Bit depth : 24 bits

  49. Compression mode : Lossy

  50. Stream size : 1.39 GiB (17%)

  51. Title : English

  52. Language : English

  53. Default : Yes

  54. Forced : No


  55. Text #1

  56. ID : 3

  57. Format : PGS

  58. Muxing mode : zlib

  59. Codec ID : S_HDMV/PGS

  60. Codec ID/Info : Picture based subtitle format used on BDs/HD-DVDs

  61. Duration : 2 h 8 min

  62. Bit rate : 13.3 kb/s

  63. Count of elements : 2875

  64. Stream size : 12.2 MiB (0%)

  65. Title : CHS

  66. Language : Chinese

  67. Default : Yes

  68. Forced : No


  69. Text #2

  70. ID : 4

  71. Format : PGS

  72. Muxing mode : zlib

  73. Codec ID : S_HDMV/PGS

  74. Codec ID/Info : Picture based subtitle format used on BDs/HD-NewHD

复制代码



文件下载


除非特别注明,本文『母女情深[简体字幕].Terms.of.Endearment.1983.1080p.BluRay.DTS.x265-10bit-ENTHD 8.13GB』来源于互联网机器人自动抓取,非本站原创。 浮游电影网不对本文拥有版权,如有侵犯,请联系邮箱:fuyouu#yandex.com[#换成@]投诉。我们会在15个工作日内删除。 但烦请转载时请标明出处:“本文转载于『浮游电影网』,原文地址:https://www.fuyouu.com/21734.html

评论吧骚年!

发表你的见解   

昵称*

E-mail*(建议输入,以便收到博主回复的提示邮件)

验证码*

您可以使用eMule或eMule Mod(Windows)、aMule(Win、Linux、Mac)等软件下载eD2k链接。。
eMule收藏集(.emulecollection)文件是您选中的所有链接的列表文件。eMule可以直接下载它们。
按住SHIFT键选择可以选中多个选择框。
可用文件名和大小选择器来选择文件。
文件名选择器帮您根据文件名称或后缀来选择文件。不分大小写。
符号使用:
和:空格( )、+
不包含:-
或:|
转义:一对英文引号("");
匹配开头:^
匹配结尾:$
例如:
选中所有名称中包含有“eMule”或“0.49c”字眼,但不包含有“exe”字眼的:emule|0.49c -exe
选中所有名称的开头是“eMule”,结尾是“0.49c”的:^emule 0.49c$
选中所有名称中带有“eMule 0.49c”的(必须是“eMule 0.49c”,中间没有别的字符,不能是“eMule fake 0.49c”),需要转义:"emule 0.49c"
大小选择器帮您根据文件大小选择文件。