当前位置: 首页 >> 欧美电影 >> 月球陨落[简繁英字幕].Moonfall.2022.2160p.HDR.UHD.BluRay.TrueHD.7.1.Atmos.x265-10bit-ENTHD 15.67GB >> 正文

月球陨落[简繁英字幕].Moonfall.2022.2160p.HDR.UHD.BluRay.TrueHD.7.1.Atmos.x265-10bit-ENTHD 15.67GB

2022年04月27日 15:47:13     电影发布:来源于网络     电影分类:欧美电影     评论(0)    

月球陨落[简繁英字幕].Moonfall.2022.2160p.HDR.UHD.BluRay.TrueHD.7.1.Atmos.x265 10bit ENTHD 15.67GB  欧美电影  第1张

◎译 名 月球陨落 / 月球坠落

◎片 名 Moonfall

◎年 代 2022

◎产 地 美国 / 中国大陆 / 英国

◎类 别 科幻 / 灾难

◎语 言 英语 / 汉语普通话

◎上映日期 2022-03-25(中国大陆) / 2022-02-04(美国)

◎IMDb链接 https://www.imdb.com/title/tt5834426/

◎豆瓣评分 5.4/10 (69961人评价)

◎豆瓣链接 https://movie.douban.com/subject/26825482/

◎片 长 130分钟

◎导 演 罗兰·艾默里奇 Roland Emmerich (id:1040593)

◎编 剧 罗兰·艾默里奇 Roland Emmerich (id:1040593)

哈洛德·克卢瑟 Harald Kloser (id:1009834)

斯宾塞·科恩 Spenser Cohen (id:1397103)

◎演 员 哈莉·贝瑞 Halle Berry (id:1054415)

帕特里克·威尔森 Patrick Wilson (id:1006919)

约翰·布莱德利 John Bradley (id:1314665)

于文文 Kelly Yu (id:1342252)

迈克尔·佩纳 Michael Pe?a (id:1131634)

唐纳德·萨瑟兰 Donald Sutherland (id:1010556)

查理·普拉默 Charlie Plummer (id:1350090)

艾米·伊库瓦克 Eme Ikwuakor (id:1467718)

卡罗林纳·巴特察克 Carolina Bartczak (id:1332869)

马克西姆·罗伊 Maxim Roy (id:1139679)

斯蒂夫·博加尔特 Stephen Bogaert (id:1350047)

蒂龙·本斯金 Tyrone Benskin (id:1389182)

乔什·克鲁达斯 Josh Cruddas (id:1442635)

凯蒂·布赖尔 Katy Breier (id:1444407)

克里斯·桑迪福德 Chris Sandiford (id:1239842)

兰迪·托马斯 Randy Thomas (id:1149651)

克里什陶·马尔尚 Krista Marchand (id:1452439)

泰勒·艾略特·伯克 Tyler Elliot Burke (id:1335425)

娜塔莉·希波蒂 Nathaly Thibault (id:1345419)

贾·史密斯-约翰逊 Jaa Smith-Johnson (id:1335589)

史蒂文·皮奥维森 Steven Piovesan (id:1348738)

大卫·泰勒 David Tyler (id:1243183)

罗兰·艾默里奇 Roland Emmerich (id:1040593)

王中军 Zhongjun Wang (id:1276036)

王中磊 Zhonglei Wang (id:1276037)

马里奥·达维尼翁 Mario Davignon (id:1281890)

费利克斯·安托万·杜瓦尔 Félix-Antoine Duval (id:1465038)

◎简 介

月球开始偏离轨道,离撞上地球的时间线越来越近,危机时刻,美国国防部提出使用核弹,来让月球重新回到正常轨道。但“假冒博士”(约翰·布莱德利饰)发现,月球内部是空的,显然是有外星文明在操控着月球的轨迹。这个计划逐渐被两位宇航员(帕特里克·威尔森和哈莉·贝瑞饰)接受,但前者因为多年前的一起太空事故,已被美国国家航空航天局开除,关键时刻,已经升为负责人的后者拍板,决定用一台被废弃在博物馆中的航天飞船再次升空飞往月球,借助前者超强的驾驶经验,深入月球地心完成任务。

  1. ##### MediaInfo ######

  2. General

  3. Unique ID : 176053970663934231302797501211896711804 (0x8472C2EAA6B9E1BF47B316FA93640A7C)

  4. Complete name : Moonfall.2022.2160p.HDR.UHD.BluRay.TrueHD.7.1.Atmos.x265-10bit-ENTHD.mkv

  5. Format : Matroska

  6. Format version : Version 4

  7. File size : 15.7 GiB

  8. Duration : 2 h 10 min

  9. Overall bit rate mode : Variable

  10. Overall bit rate : 17.2 Mb/s

  11. Movie name : Moonfall 2022 2160p HDR UHD BluRay TrueHD 7.1 Atmos x265-10bit-HDS

  12. Encoded date : UTC 2022-04-27 01:10:01

  13. Writing application : mkvmerge v67.0.0 ('Under Stars') 64-bit

  14. Writing library : libebml v1.4.2 + libmatroska v1.6.4


  15. Video

  16. ID : 1

  17. Format : HEVC

  18. Format/Info : High Efficiency Video Coding

  19. Format profile : Main [email protected]@High

  20. HDR format : SMPTE ST 2086, HDR10 compatible

  21. Codec ID : V_MPEGH/ISO/HEVC

  22. Duration : 2 h 10 min

  23. Bit rate : 11.5 Mb/s

  24. Width : 3 840 pixels

  25. Height : 1 608 pixels

  26. Display aspect ratio : 2.40:1

  27. Frame rate mode : Constant

  28. Frame rate : 23.976 (24000/1001/53354) FPS

  29. Color space : YUV

  30. Chroma subsampling : 4:2:0

  31. Bit depth : 10 bits

  32. Bits/(Pixel*Frame) : 0.078

  33. Stream size : 10.5 GiB (67%)

  34. Title : @HDSky

  35. Writing library : x265 - H.265/HEVC codec

  36. Default : Yes

  37. Forced : No

  38. Color range : Limited

  39. Color primaries : BT.2020

  40. Transfer characteristics : PQ

  41. Matrix coefficients : BT.2020 non-constant

  42. Mastering display color primaries : Display P3

  43. Mastering display luminance : min: 0.0010 cd/m2, max: 1000 cd/m2

  44. Maximum Content Light Level : 922 cd/m2

  45. Maximum Frame-Average Light Level : 600 cd/m2


  46. Audio #1

  47. ID : 2

  48. Format : MLP FBA 16-ch

  49. Format/Info : Meridian Lossless Packing FBA with 16-channel presentation

  50. Commercial name : Dolby TrueHD with Dolby Atmos

  51. Codec ID : A_TRUEHD

  52. Duration : 2 h 10 min

  53. Bit rate mode : Variable

  54. Bit rate : 4 704 kb/s

  55. Maximum bit rate : 8 046 kb/s

  56. Channel(s) : 8 channels

  57. Channel layout : L R C LFE Ls Rs Lb Rb

  58. Sampling rate : 48.0 kHz

  59. Frame rate : 1 200.000 FPS (40 SPF)

  60. Compression mode : Lossless

  61. Stream size : 4.28 GiB (27%)

  62. Title : English

  63. Language : English

  64. Default : Yes

  65. Forced : No

  66. Number of dynamic objects : 11

  67. Bed channel count : 1 channel

  68. Bed channel configuration : LFE


  69. Audio #2

  70. ID : 3

  71. Format : AC-3

  72. Format/Info : Audio Coding 3

  73. Commercial name : Dolby Digital

  74. Codec ID : A_AC3

  75. Duration : 2 h 10 min

  76. Bit rate mode : Constant

  77. Bit rate : 640 kb/s

  78. Channel(s) : 6 channels

  79. Channel layout : L R C LFE Ls Rs

  80. Sampling rate : 48.0 kHz

  81. Frame rate : 31.250 FPS (1536 SPF)

  82. Compression mode : Lossy

  83. Stream size : 596 MiB (4%)

  84. Service kind : Complete Main

  85. Default : Yes

  86. Forced : No


  87. Text #1

  88. ID : 4

  89. Format : PGS

  90. Muxing mode : zlib

  91. Codec ID : S_HDMV/PGS

  92. Codec ID/Info : Picture based subtitle format used on BDs/HD-DVDs

  93. Duration : 2 h 0 min

  94. Bit rate : 34.6 kb/s

  95. Count of elements : 3354

  96. Stream size : 29.9 MiB (0%)

  97. Title : ENG

  98. Language : English

  99. Default : Yes

  100. Forced : No


  101. Text #2

  102. ID : 5

  103. Format : PGS

  104. Muxing mode : zlib

  105. Codec ID : S_HDMV/PGS

  106. Codec ID/Info : Picture based subtitle format used on BDs/HD-DVDs

  107. Duration : 2 h 4 min

  108. Bit rate : 152 kb/s

  109. Count of elements : 10371

  110. Stream size : 135 MiB (1%)

  111. Title : CHS

  112. Language : Chinese

  113. Default : Yes

  114. Forced : No


  115. Text #3

  116. ID : 6

  117. Format : PGS

  118. Muxing mode : zlib

  119. Codec ID : S_HDMV/PGS

  120. Codec ID/Info : Picture based subtitle format used on BDs/HD-DVDs

  121. Duration : 2 h 4 min

  122. Bit rate : 153 kb/s

  123. Count of elements : 10371

  124. Stream size : 136 MiB (1%)

  125. Title : CHT

  126. Language : Chinese

  127. Default : Yes

  128. Forced : No


  129. Text #4

  130. ID : 7

  131. Format : PGS

  132. Muxing mode : zlib

  133. Codec ID : S_HDMV/PGS

  134. Codec ID/Info : Picture based subtitle format used on BDs/HD-DVDs

  135. Duration : 2 h 4 min

  136. Bit rate : 226 kb/s

  137. Count of elements : 10370

  138. Stream size : 201 MiB (1%)

  139. Title : CHS&ENG

  140. Language : Chinese

  141. Default : Yes

  142. Forced : No


  143. Menu

  144. 00:00:00.000 : en:第 01 章

  145. 00:05:58.275 : en:第 02 章

  146. 00:13:28.057 : en:第 03 章

  147. 00:21:14.565 : en:第 04 章

  148. 00:30:58.940 : en:第 05 章

  149. 00:38:36.856 : en:第 06 章

  150. 00:47:33.726 : en:第 07 章

  151. 00:55:51.848 : en:第 08 章

  152. 01:03:39.816 : en:第 09 章

  153. 01:10:14.710 : en:第 10 章

  154. 01:15:38.534 : en:第 11 章

  155. 01:22:37.369 : en:第 12 章

  156. 01:30:10.780 : en:第 13 章

  157. 01:35:47.784 : en:第 14 章

  158. 01:45:09.178 : en:第 15 章

  159. 01:56:22.976 : en:第 16 章




复制代码



文件下载


除非特别注明,本文『月球陨落[简繁英字幕].Moonfall.2022.2160p.HDR.UHD.BluRay.TrueHD.7.1.Atmos.x265-10bit-ENTHD 15.67GB』来源于互联网机器人自动抓取,非本站原创。 浮游电影网不对本文拥有版权,如有侵犯,请联系邮箱:fuyouu#yandex.com[#换成@]投诉。我们会在15个工作日内删除。 但烦请转载时请标明出处:“本文转载于『浮游电影网』,原文地址:https://www.fuyouu.com/21733.html

评论吧骚年!

发表你的见解   

昵称*

E-mail*(建议输入,以便收到博主回复的提示邮件)

验证码*

您可以使用eMule或eMule Mod(Windows)、aMule(Win、Linux、Mac)等软件下载eD2k链接。。
eMule收藏集(.emulecollection)文件是您选中的所有链接的列表文件。eMule可以直接下载它们。
按住SHIFT键选择可以选中多个选择框。
可用文件名和大小选择器来选择文件。
文件名选择器帮您根据文件名称或后缀来选择文件。不分大小写。
符号使用:
和:空格( )、+
不包含:-
或:|
转义:一对英文引号("");
匹配开头:^
匹配结尾:$
例如:
选中所有名称中包含有“eMule”或“0.49c”字眼,但不包含有“exe”字眼的:emule|0.49c -exe
选中所有名称的开头是“eMule”,结尾是“0.49c”的:^emule 0.49c$
选中所有名称中带有“eMule 0.49c”的(必须是“eMule 0.49c”,中间没有别的字符,不能是“eMule fake 0.49c”),需要转义:"emule 0.49c"
大小选择器帮您根据文件大小选择文件。