当前位置: 首页 >> 欧美电影 >> 边境杀手[共2部合集][简英字幕].Sicario.1-2.2015-2018.BluRay.1080p.DTS-HD.MA.7.1.x265.10bit-ALT 14.55GB >> 正文

边境杀手[共2部合集][简英字幕].Sicario.1-2.2015-2018.BluRay.1080p.DTS-HD.MA.7.1.x265.10bit-ALT 14.55GB

2022年04月27日 15:44:33     电影发布:来源于网络     电影分类:欧美电影     评论(0)    

边境杀手[共2部合集][简英字幕].Sicario.1 2.2015 2018.BluRay.1080p.DTS HD.MA.7.1.x265.10bit ALT 14.55GB  欧美电影  第1张

◎译 名 边境杀手 / 毒裁者(港) / 怒火边界(台) / 西卡里奥

◎片 名 Sicario

◎年 代 2015

◎产 地 美国 / 墨西哥 / 中国香港

◎类 别 剧情 / 惊悚 / 犯罪

◎语 言 英语 / 西班牙语

◎上映日期 2015-05-19(戛纳电影节) / 2015-10-02(美国)

◎IMDb链接 https://www.imdb.com/title/tt3397884/

◎豆瓣评分 7.7/10 (125200人评价)

◎豆瓣链接 https://movie.douban.com/subject/25881247/

◎片 长 121分钟

◎导 演 丹尼斯·维伦纽瓦 Denis Villeneuve (id:1028333)

◎编 剧 泰勒·谢里丹 Taylor Sheridan (id:1340379)

约翰·约翰逊 Jóhann Jóhannsson (id:1331916)

◎演 员 艾米莉·布朗特 Emily Blunt (id:1041022)

本尼西奥·德尔·托罗 Benicio del Toro (id:1041005)

乔什·布洛林 Josh Brolin (id:1004568)

维克多·加博 Victor Garber (id:1031913)

乔·博恩瑟 Jon Bernthal (id:1049679)

丹尼尔·卡卢亚 Daniel Kaluuya (id:1316928)

杰弗里·多诺万 Jeffrey Donovan (id:1044732)

劳尔·特鲁希洛 Raoul Trujillo (id:1157871)

胡里奥·赛迪罗 Julio Cedillo (id:1332387)

汉克·罗杰森 Hank Rogerson (id:1295934)

马克斯米利亚诺·赫尔南德斯 Maximiliano Hernández (id:1339359)

艾伦·D·柏温 Alan D. Purwin (id:1294989)

迪兰·科宁 Dylan Kenin (id:1328497)

马修·佩奇 Matthew Page (id:1336231)

约翰·彼得·贝尔纳多 John Peter Bernardo (id:1038784)

亚历克斯·奈特 Alex Knight (id:1345301)

马蒂·林赛 Marty Lindsey (id:1118549)

萨拉·明妮奇 Sarah Minnich (id:1378752)

洛拉·玛汀内斯-康宁安 Lora Martinez-Cunningham (id:1391559)

埃德加·阿雷拉 Edgar Arreola (id:1377670)

瑞欧·亚历山大 Rio Alexander (id:1385012)

约翰·约翰逊 Jóhann Jóhannsson (id:1331916)

罗杰·狄金斯 Roger Deakins (id:1018197)

乔·沃克 Joe Walker (id:1336020)

蕾妮·艾珀尔 Renée April (id:1277332)

阿兰·罗伯特·默里 Alan Robert Murray (id:1292770)

◎简 介

在美国与墨西哥的边界有一块灰色地带,那里是毒贩和杀手们的天堂,他们在此交易火并,完全视法律为无物。凯特(艾米莉·布朗特 Emily Blunt 饰)是联邦调查局的探员,心里怀揣着惩奸除恶的正义理想,她来到此地,加入了联邦政府特种部队,成为了马特(乔什·布洛林 Josh Brolin 饰)的部下。

亚历桑德罗(本尼西奥·德尔·托罗 Benicio Del Toro 饰)是曾经卧底在毒枭身边的前任特工,马特找到了他,希望经验丰富的他能够成为行动小组的战略顾问,然而亲历过地狱的亚历桑德罗完全不按常理出牌,他的所作所为时常刺激着凯特脆弱而又敏感的神经。随着调查的深入,死亡的气息笼罩着行动组内的每一个人,一次又一次与死神擦肩而过,凯特的三观开始发生动摇。

◎获奖情况 (共28项)

第88届奥斯卡金像奖 (2016)

最佳摄影(提名)

└──罗杰·狄金斯 (id:1018197)

最佳音效剪辑(提名)

└──阿兰·罗伯特·默里 (id:1292770)

最佳原创配乐(提名)

└──约翰·约翰逊 (id:1331916)

第68届戛纳电影节 (2015)

主竞赛单元 金棕榈奖(提名)

└──丹尼斯·维伦纽瓦 (id:1028333)

第69届英国电影学院奖 (2016)

电影奖 最佳男配角(提名)

└──本尼西奥·德尔·托罗 (id:1041005)

电影奖 最佳摄影(提名)

└──罗杰·狄金斯 (id:1018197)

电影奖 最佳原创音乐(提名)

└──约翰·约翰逊 (id:1331916)

第68届美国编剧工会奖 (2016)

电影奖 最佳原创剧本(提名)

└──泰勒·谢里丹 (id:1340379)

第27届美国制片人工会奖 (2016)

最佳电影制片人奖(提名)

第30届美国摄影协会奖 (2016)

电影长片最佳摄影(提名)

└──罗杰·狄金斯 (id:1018197)

第66届美国剪辑工会奖 (2016)

剧情片最佳剪辑(提名)

第87届美国国家评论协会奖 (2015)

年度佳片

第21届美国评论家选择电影奖 (2016)

最佳影片(提名)

最佳动作片(提名)

动作片最佳女主角(提名)

└──艾米莉·布朗特 (id:1041022)

最佳摄影(提名)

└──罗杰·狄金斯 (id:1018197)

最佳配乐(提名)

第20届金卫星奖 (2016)

电影部门 最佳剪辑

第19届好莱坞电影奖 (2015)

年度男配角

└──本尼西奥·德尔·托罗 (id:1041005)

第14届华盛顿影评人协会奖 (2015)

最佳原创配乐

第28届芝加哥影评人协会奖 (2015)

最佳男配角

└──本尼西奥·德尔·托罗 (id:1041005)

第19届美国在线影评人协会奖 (2015)

最佳影片(提名)

最佳导演(提名)

└──丹尼斯·维伦纽瓦 (id:1028333)

最佳男配角(提名)

└──本尼西奥·德尔·托罗 (id:1041005)

最佳原创剧本(提名)

└──泰勒·谢里丹 (id:1340379)

最佳剪辑(提名)

└──乔·沃克 (id:1336020)

最佳摄影(提名)

└──罗杰·狄金斯 (id:1018197)

第6届豆瓣电影鑫像奖 (2016)

鑫豆单元 最佳配乐(提名)

  1. 合集文件列表:

  2. 1.Sicario.2015.BluRay.1080p.TrueHD.Atmos.7.1.x265.10bit-ALT.mkv 6.83GB

  3. 2.Sicario.Day.of.the.Soldado.2018.BluRay.1080p.DTS-HD.MA.7.1.x265.10bit-ALT.mkv 7.72GB


复制代码

  1. ##### MediaInfo ######

  2. General

  3. Unique ID : 47470232660035299399221191335740623977 (0x23B66F2B50E2BD424184228F1EF2CC69)

  4. Complete name : Sicario.2015.BluRay.1080p.TrueHD.Atmos.7.1.x265.10bit-ALT.mkv

  5. Format : Matroska

  6. Format version : Version 4

  7. File size : 6.83 GiB

  8. Duration : 2 h 1 min

  9. Overall bit rate mode : Variable

  10. Overall bit rate : 8 057 kb/s

  11. Encoded date : UTC 2020-05-04 13:51:26

  12. Writing application : mkvmerge v46.0.0 ('No Deeper Escape') 64-bit

  13. Writing library : libebml v1.3.10 + libmatroska v1.5.2


  14. Video

  15. ID : 1

  16. Format : HEVC

  17. Format/Info : High Efficiency Video Coding

  18. Format profile : Main [email protected]@High

  19. Codec ID : V_MPEGH/ISO/HEVC

  20. Duration : 2 h 1 min

  21. Bit rate : 3 209 kb/s

  22. Width : 1 920 pixels

  23. Height : 804 pixels

  24. Display aspect ratio : 2.40:1

  25. Frame rate mode : Constant

  26. Frame rate : 23.976 (24000/1001/53354) FPS

  27. Color space : YUV

  28. Chroma subsampling : 4:2:0

  29. Bit depth : 10 bits

  30. Bits/(Pixel*Frame) : 0.087

  31. Stream size : 2.72 GiB (40%)

  32. Title : HEVC, [email protected]@High, 24/1.001 fps @ 3208 kbps

  33. Writing library : x265 3.3+1-g396395b2b:[Windows][GCC 9.2.0][64 bit] 10bit

  34. Encoding settings : cpuid=533541111039 / frame-threads=5 / numa-pools=44,44 / wpp / pmode / pme / no-psnr / no-ssim / log-level=2 / input-csp=1 / input-res=1920x804 / interlace=0 / total-frames=174553 / level-idc=51 / high-tier=1 / uhd-bd=0 / ref=5 / no-allow-non-conformance / no-repeat-headers / annexb / no-aud / no-hrd / info / hash=0 / no-temporal-layers / open-gop / min-keyint=24 / keyint=240 / gop-lookahead=0 / bframes=6 / b-adapt=2 / b-pyramid / bframe-bias=0 / rc-lookahead=40 / lookahead-slices=0 / NTMzNTQ=uuDQuD2mJt9fsCf / scenecut=40 / hist-scenecut=0 / radl=0 / no-splice / no-intra-refresh / ctu=32 / min-cu-size=8 / no-rect / no-amp / max-tu-size=32 / tu-inter-depth=3 / tu-intra-depth=3 / limit-tu=4 / rdoq-level=2 / dynamic-rd=0.00 / no-ssim-rd / signhide / no-tskip / nr-intra=0 / nr-inter=0 / no-constrained-intra / no-strong-intra-smoothing / max-merge=4 / limit-refs=1 / limit-modes / me=3 / subme=4 / merange=25 / temporal-mvp / no-frame-dup / no-hme / weightp / weightb / no-analyze-src-pics / deblock=-3:-3 / no-sao / no-sao-non-deblock / rd=6 / selective-sao=0 / no-early-skip / rskip / no-fast-intra / no-tskip-fast / no-cu-lossless / b-intra / no-splitrd-skip / rdpenalty=0 / psy-rd=2.00 / psy-rdoq=1.00 / no-rd-refine / no-lossless / cbqpoffs=0 / crqpoffs=0 / rc=crf / crf=17.0 / qcomp=0.65 / qpstep=4 / stats-write=0 / stats-read=0 / vbv-maxrate=80000 / vbv-bufsize=80000 / vbv-init=0.9 / crf-max=0.0 / crf-min=0.0 / ipratio=1.40 / pbratio=1.30 / aq-mode=2 / aq-strength=0.85 / cutree / zone-count=0 / no-strict-cbr / qg-size=32 / no-rc-grain / qpmax=69 / qpmin=0 / no-const-vbv / sar=1 / overscan=0 / videoformat=5 / range=0 / colorprim=1 / transfer=1 / colormatrix=1 / chromaloc=0 / display-window=0 / cll=0,0 / min-luma=0 / max-luma=1023 / log2-max-poc-lsb=8 / vui-timing-info / vui-hrd-info / slices=1 / no-opt-qp-pps / no-opt-ref-list-length-pps / no-multi-pass-opt-rps / scenecut-bias=0.05 / hist-threshold=0.01 / no-opt-cu-delta-qp / no-aq-motion / no-hdr10 / no-hdr10-opt / no-dhdr10-opt / no-idr-recovery-sei / analysis-reuse-level=0 / analysis-save-reuse-level=0 / analysis-load-reuse-level=0 / scale-factor=0 / refine-intra=0 / refine-inter=0 / refine-mv=1 / refine-ctu-distortion=0 / no-limit-sao / ctu-info=0 / no-lowpass-dct / refine-analysis-type=0 / copy-pic=1 / max-ausize-factor=1.0 / no-dynamic-refine / no-single-sei / no-hevc-aq / no-svt / no-field / qp-adaptation-range=1.00 / no-scenecut-aware-qpconformance-window-offsets / right=0 / bottom=0 / NTMzNTQ=

  35. Language : English

  36. Default : Yes

  37. Forced : No

  38. Color range : Limited

  39. Color primaries : BT.709

  40. Transfer characteristics : BT.709

  41. Matrix coefficients : BT.709


  42. Audio #1

  43. ID : 2

  44. Format : MLP FBA 16-ch

  45. Format/Info : Meridian Lossless Packing FBA with 16-channel presentation

  46. Commercial name : Dolby TrueHD with Dolby Atmos

  47. Codec ID : A_TRUEHD

  48. Duration : 2 h 1 min

  49. Bit rate mode : Variable

  50. Bit rate : 4 070 kb/s

  51. Maximum bit rate : 9 297 kb/s

  52. Channel(s) : 8 channels

  53. Channel layout : L R C LFE Ls Rs Lb Rb

  54. Sampling rate : 48.0 kHz

  55. Frame rate : 1 200.000 FPS (40 SPF)

  56. Compression mode : Lossless

  57. Stream size : 3.45 GiB (51%)

  58. Title : English Dolby TrueHD 7.1 (Atmos) @ 4070 kbps

  59. Language : English

  60. Default : Yes

  61. Forced : No

  62. Number of dynamic objects : 11

  63. Bed channel count : 1 channel

  64. Bed channel configuration : LFE


  65. Audio #2

  66. ID : 3

  67. Format : AC-3

  68. Format/Info : Audio Coding 3

  69. Commercial name : Dolby Digital

  70. Codec ID : A_AC3

  71. Duration : 2 h 1 min

  72. Bit rate mode : Constant

  73. Bit rate : 640 kb/s

  74. Channel(s) : 6 channels

  75. Channel layout : L R C LFE Ls Rs

  76. Sampling rate : 48.0 kHz

  77. Frame rate : 31.250 FPS (1536 SPF)

  78. Compression mode : Lossy

  79. Stream size : 555 MiB (8%)

  80. Title : English AC3 5.1-EX @ 640 kbps

  81. Language : English

  82. Service kind : Complete Main

  83. Default : No

  84. Forced : No


  85. Text #1

  86. ID : 4

  87. Format : PGS

  88. Codec ID : S_HDMV/PGS

  89. Codec ID/Info : Picture based subtitle format used on BDs/HD-DVDs

  90. Duration : 1 h 50 min

  91. Bit rate : 23.9 kb/s

  92. Count of elements : 1882

  93. Stream size : 18.9 MiB (0%)

  94. Title : Eng/SUP

  95. Language : English

  96. Default : No

  97. Forced : No


  98. Text #2

  99. ID : 5

  100. Format : PGS

  101. Codec ID : S_HDMV/PGS

  102. Codec ID/Info : Picture based subtitle format used on BDs/HD-DVDs

  103. Duration : 1 h 56 min

  104. Bit rate : 30.5 kb/s

  105. Count of elements : 2159

  106. Stream size : 25.4 MiB (0%)

  107. Title : Chs/SUP 简体

  108. Language : Chinese

  109. Default : Yes

  110. Forced : No


  111. Text #3

  112. ID : 6

  113. Format : PGS

  114. Codec ID : S_HDMV/PGS

  115. Codec ID/Info : Picture based subtitle format used on BDs/HD-DVDs

  116. Duration : 1 h 56 min

  117. Bit rate : 19.2 kb/s

  118. Count of elements : 2159

  119. Stream size : 15.9 MiB (0%)

  120. Title : Chs/SUP 简英双语

  121. Language : Chinese

  122. Default : No

  123. Forced : No


  124. Menu

  125. 00:00:00.000 : en:第 01 章

  126. 00:07:14.351 : en:第 02 章

  127. 00:12:55.108 : en:第 03 章

  128. 00:20:04.370 : en:第 04 章

  129. 00:25:24.815 : en:第 05 章

  130. 00:32:11.596 : en:第 06 章

  131. 00:39:24.821 : en:第 07 章

  132. 00:46:15.314 : en:第 08 章

  133. 00:53:24.576 : en:第 09 章

  134. 01:01:40.322 : en:第 10 章

  135. 01:10:49.120 : en:第 11 章

  136. 01:18:02.887 : en:第 12 章

  137. 01:30:59.371 : en:第 13 章

  138. 01:36:57.770 : en:第 14 章

  139. 01:47:42.039 : en:第 15 章

  140. 01:54:12.804 : en:第 16 章




复制代码



文件下载


除非特别注明,本文『边境杀手[共2部合集][简英字幕].Sicario.1-2.2015-2018.BluRay.1080p.DTS-HD.MA.7.1.x265.10bit-ALT 14.55GB』来源于互联网机器人自动抓取,非本站原创。 浮游电影网不对本文拥有版权,如有侵犯,请联系邮箱:fuyouu#yandex.com[#换成@]投诉。我们会在15个工作日内删除。 但烦请转载时请标明出处:“本文转载于『浮游电影网』,原文地址:https://www.fuyouu.com/21731.html

评论吧骚年!

发表你的见解   

昵称*

E-mail*(建议输入,以便收到博主回复的提示邮件)

验证码*

您可以使用eMule或eMule Mod(Windows)、aMule(Win、Linux、Mac)等软件下载eD2k链接。。
eMule收藏集(.emulecollection)文件是您选中的所有链接的列表文件。eMule可以直接下载它们。
按住SHIFT键选择可以选中多个选择框。
可用文件名和大小选择器来选择文件。
文件名选择器帮您根据文件名称或后缀来选择文件。不分大小写。
符号使用:
和:空格( )、+
不包含:-
或:|
转义:一对英文引号("");
匹配开头:^
匹配结尾:$
例如:
选中所有名称中包含有“eMule”或“0.49c”字眼,但不包含有“exe”字眼的:emule|0.49c -exe
选中所有名称的开头是“eMule”,结尾是“0.49c”的:^emule 0.49c$
选中所有名称中带有“eMule 0.49c”的(必须是“eMule 0.49c”,中间没有别的字符,不能是“eMule fake 0.49c”),需要转义:"emule 0.49c"
大小选择器帮您根据文件大小选择文件。