当前位置: 首页 >> 动画电影 >> 怪物史瑞克[共4部合集][国粤英多音轨/繁英字幕].Shrek.1-4.2001-2010.BluRay.1080p.3Audio.TrueHD.7.1.x265.10bit-ALT 29.67GB >> 正文

怪物史瑞克[共4部合集][国粤英多音轨/繁英字幕].Shrek.1-4.2001-2010.BluRay.1080p.3Audio.TrueHD.7.1.x265.10bit-ALT 29.67GB

2022年04月27日 15:43:28     电影发布:来源于网络     电影分类:动画电影     评论(0)    

怪物史瑞克[共4部合集][国粤英多音轨/繁英字幕].Shrek.1 4.2001 2010.BluRay.1080p.3Audio.TrueHD.7.1.x265.10bit ALT 29.67GB  动画电影  第1张

◎译 名 怪物史瑞克 / 史力加(港) / 史瑞克(台) / 怪物史莱克

◎片 名 Shrek

◎年 代 2001

◎产 地 美国

◎类 别 喜剧 / 动画 / 家庭 / 奇幻 / 冒险

◎语 言 英语

◎上映日期 2001-05-18(美国)

◎IMDb链接 https://www.imdb.com/title/tt0126029/

◎豆瓣评分 7.9/10 (181232人评价)

◎豆瓣链接 https://movie.douban.com/subject/1291581/

◎片 长 90分钟

◎导 演 安德鲁·亚当森 Andrew Adamson (id:1036635)

维基·詹森 Vicky Jenson (id:1287706)

◎编 剧 威廉·史塔克 William Steig (id:1041621)

泰德·艾略特 Ted Elliott (id:1283130)

特里·鲁西奥 Terry Rossio (id:1009677)

乔·斯蒂尔曼 Joe Stillman (id:1298450)

罗杰·S·H·舒尔曼 Roger S.H. Schulman (id:1296983)

科迪·卡梅伦 Cody Cameron (id:1334545)

克里斯·米勒 Chris Miller (id:1313416)

康拉德·弗农 Conrad Vernon (id:1009555)

◎演 员 麦克·梅尔斯 Mike Myers (id:1017899)

艾迪·墨菲 Eddie Murphy (id:1002672)

卡梅隆·迪亚兹 Cameron Diaz (id:1054422)

约翰·利思戈 John Lithgow (id:1027824)

文森特·卡索 Vincent Cassel (id:1036377)

皮特·丹尼斯 Peter Dennis (id:1083839)

克莱夫·皮尔斯 Clive Pearse (id:1365816)

吉姆·卡明斯 Jim Cummings (id:1040525)

鲍比·布洛克 Bobby Block (id:1365817)

克里斯·米勒 Chris Miller (id:1313416)

科迪·卡梅伦 Cody Cameron (id:1334545)

凯瑟琳·弗里曼 Kathleen Freeman (id:1083132)

迈克尔·葛拉索 Michael Galasso (id:1365818)

克里斯多夫·奈茨 Christopher Knights (id:1328456)

西蒙·J·史密斯 Simon J. Smith (id:1314184)

藤原纪香 Norika Fujiwara (id:1009922)

吉约姆·阿瑞托斯 Guillaume Aretos (id:1016118)

安德鲁·亚当森 Andrew Adamson (id:1036635)

(id:1301859)

杰奎·巴恩布鲁克 Jacquie Barnbrook (id:1277948)

史蒂文·斯皮尔伯格 Steven Spielberg (id:1054440)

约翰?亨利?威廉姆斯 John H. Williams (id:1300968)

阿伦·沃纳 Aron Warner (id:1300440)

泰德·艾略特 Ted Elliott (id:1283130)

Penney Finkelman Cox Penney Finkelman Cox (id:1283758)

Sandra Rabins Sandra Rabins (id:1295098)

约翰·鲍威尔 John Powell (id:1050025)

哈里·格雷格森-威廉姆斯 Harry Gregson-Williams (id:1056131)

Sim Evan-Jones Sim Evan-Jones (id:1283334)

莱斯利·费尔德曼 Leslee Feldman (id:1283542)

道格拉斯·罗杰斯 Douglas Rogers (id:1301888)

吉约姆·阿瑞托斯 Guillaume Aretos (id:1016118)

James Hegedus James Hegedus (id:1286360)

伊西斯·马森登 Isis Mussenden (id:1019610)

Alex Grau Alex Grau (id:1303794)

温迪·罗杰斯 Wendy Rogers (id:1295925)

Apurva Shah Apurva Shah (id:1297294)

Jonathan Gibbs Jonathan Gibbs (id:1307952)

阿诺德·拉莫莱蒂 Arnauld Lamorlette (id:1306727)

詹姆斯·斯特劳斯 James Straus (id:1298547)

Erdem Taylan Erdem Taylan (id:1308119)

Trina M. Roy Trina M. Roy (id:1308120)

Ken Pearce Ken Pearce (id:1303623)

Scott B. Peterson Scott B. Peterson (id:1308131)

Alain De Hoe Alain De Hoe (id:1308118)

Matt Baer Matt Baer (id:1304494)

Martin Usiak Martin Usiak (id:1308140)

Ken Bielenberg Ken Bielenberg (id:1278607)

迪克·瓦尔什 Dick Walsh (id:1325139)

埃里克·莱瑟德 Eric Lessard (id:1424635)

◎简 介

史莱克生活在平凡的世界中——他本身是一个其貌不扬的怪物,绿色的身体,古怪的脾气,不爱干净的懒散生活。这天他家里来了几个不速之客,他们告诉史莱克,自己来自一个残暴国王统治下的王国,现在已经无家可归了。而且,那个残暴的国王还掠夺了一个美丽非凡的公主,打算强占为妻。

史莱克虽说丑陋,却心内善良。在领主的威逼下,无奈下他只能前去搭救公主,同时心想一睹公主芳容。路上,他遇到了一个话痨骡子,骡子知道了史莱克的事迹,决定忠心耿耿为之效劳。

前路有喷火恶龙等着和他们搏斗呢,他们能不能闯过难关,上演完美的英雄救美童话?

◎获奖情况 (共15项)

第74届奥斯卡金像奖 (2002)

最佳改编剧本(提名)

最佳动画长片

└──阿伦·沃纳 (id:1300440)

第54届戛纳电影节 (2001)

主竞赛单元 金棕榈奖(提名)

第59届金球奖 (2002)

电影类 最佳音乐/喜剧片(提名)

第29届动画安妮奖 (2001)

最佳动画长片

最佳导演

最佳编剧

最佳男配音

└──艾迪·墨菲 (id:1002672)

最佳配乐

最佳分镜

└──罗伯特·库 (id:1308123)

最佳艺术指导

└──吉约姆·阿瑞托斯 (id:1016118)

最佳艺术指导(提名)

└──道格拉斯·罗杰斯 (id:1301888)

最佳动画角色(提名)

最佳动画效果

└──阿诺德·拉莫莱蒂 (id:1306727)

第2届美国电影学会奖 (2001)

年度佳片

  1. 合集文件列表:

  2. 1.Shrek.2.2004.BluRay.1080p.3Audio.TrueHD.7.1.x265.10bit-ALT.mkv 8.10GB

  3. 2.Shrek.2001.BluRay.1080p.3Audio.TrueHD.7.1.x265.10bit-ALT.mkv 7.69GB

  4. 3.Shrek.Forever.After.2010.BluRay.1080p.3Audio.TrueHD.7.1.x265.10bit-ALT.mkv 6.75GB

  5. 4.Shrek.The.Third.2007.BluRay.1080p.3Audio.TrueHD.7.1.x265.10bit-ALT.mkv 7.13GB


复制代码

  1. ##### MediaInfo ######

  2. General

  3. Unique ID : 171131420858334708420783968676903820289 (0x80BEB6791EFB47FBE039E19E96729C01)

  4. Complete name : Shrek.2.2004.BluRay.1080p.3Audio.TrueHD.7.1.x265.10bit-ALT.mkv

  5. Format : Matroska

  6. Format version : Version 4

  7. File size : 8.10 GiB

  8. Duration : 1 h 32 min

  9. Overall bit rate mode : Variable

  10. Overall bit rate : 12.5 Mb/s

  11. Encoded date : UTC 2020-03-26 01:13:38

  12. Writing application : mkvmerge v44.0.0 ('Domino') 64-bit

  13. Writing library : libebml v1.3.10 + libmatroska v1.5.2


  14. Video

  15. ID : 1

  16. Format : HEVC

  17. Format/Info : High Efficiency Video Coding

  18. Format profile : Main [email protected]@High

  19. Codec ID : V_MPEGH/ISO/HEVC

  20. Duration : 1 h 32 min

  21. Bit rate : 6 584 kb/s

  22. Width : 1 920 pixels

  23. Height : 1 080 pixels

  24. Display aspect ratio : 16:9

  25. Frame rate mode : Constant

  26. Frame rate : 23.976 (24000/1001/53354) FPS

  27. Color space : YUV

  28. Chroma subsampling : 4:2:0

  29. Bit depth : 10 bits

  30. Bits/(Pixel*Frame) : 0.132

  31. Stream size : 4.25 GiB (52%)

  32. Title : HEVC, [email protected]@High, 24/1.001 fps @ 6584 kbps

  33. Writing library : x265 3.3+1-g396395b2b:[Windows][GCC 9.2.0][64 bit] 10bit

  34. Encoding settings : cpuid=533541111039 / frame-threads=4 / numa-pools=16 / wpp / pmode / pme / no-psnr / no-ssim / log-level=2 / input-csp=1 / input-res=1920x1080 / interlace=0 / total-frames=132907 / level-idc=51 / high-tier=1 / uhd-bd=0 / ref=5 / no-allow-non-conformance / no-repeat-headers / annexb / no-aud / no-hrd / info / hash=0 / no-temporal-layers / open-gop / min-keyint=24 / keyint=240 / gop-lookahead=0 / bframes=6 / b-adapt=2 / b-pyramid / bframe-bias=0 / rc-lookahead=40 / lookahead-slices=0 / NTMzNTQ=uuDQuD2mJt9fsCf / scenecut=40 / hist-scenecut=0 / radl=0 / no-splice / no-intra-refresh / ctu=32 / min-cu-size=8 / no-rect / no-amp / max-tu-size=32 / tu-inter-depth=3 / tu-intra-depth=3 / limit-tu=4 / rdoq-level=2 / dynamic-rd=0.00 / no-ssim-rd / signhide / no-tskip / nr-intra=0 / nr-inter=0 / no-constrained-intra / no-strong-intra-smoothing / max-merge=4 / limit-refs=1 / limit-modes / me=3 / subme=4 / merange=25 / temporal-mvp / no-frame-dup / no-hme / weightp / weightb / no-analyze-src-pics / deblock=-3:-3 / no-sao / no-sao-non-deblock / rd=6 / selective-sao=0 / no-early-skip / rskip / no-fast-intra / no-tskip-fast / no-cu-lossless / b-intra / no-splitrd-skip / rdpenalty=0 / psy-rd=2.00 / psy-rdoq=1.00 / no-rd-refine / no-lossless / cbqpoffs=0 / crqpoffs=0 / rc=crf / crf=17.0 / qcomp=0.65 / qpstep=4 / stats-write=0 / stats-read=0 / vbv-maxrate=80000 / vbv-bufsize=80000 / vbv-init=0.9 / crf-max=0.0 / crf-min=0.0 / ipratio=1.40 / pbratio=1.30 / aq-mode=2 / aq-strength=0.85 / cutree / zone-count=0 / no-strict-cbr / qg-size=32 / no-rc-grain / qpmax=69 / qpmin=0 / no-const-vbv / sar=1 / overscan=0 / videoformat=5 / range=0 / colorprim=1 / transfer=1 / colormatrix=1 / chromaloc=0 / display-window=0 / cll=0,0 / min-luma=0 / max-luma=1023 / log2-max-poc-lsb=8 / vui-timing-info / vui-hrd-info / slices=1 / no-opt-qp-pps / no-opt-ref-list-length-pps / no-multi-pass-opt-rps / scenecut-bias=0.05 / hist-threshold=0.01 / no-opt-cu-delta-qp / no-aq-motion / no-hdr10 / no-hdr10-opt / no-dhdr10-opt / no-idr-recovery-sei / analysis-reuse-level=0 / analysis-save-reuse-level=0 / analysis-load-reuse-level=0 / scale-factor=0 / refine-intra=0 / refine-inter=0 / refine-mv=1 / refine-ctu-distortion=0 / no-limit-sao / ctu-info=0 / no-lowpass-dct / refine-analysis-type=0 / copy-pic=1 / max-ausize-factor=1.0 / no-dynamic-refine / no-single-sei / no-hevc-aq / no-svt / no-field / qp-adaptation-range=1.00 / no-scenecut-aware-qpconformance-window-offsets / right=0 / bottom=0 / NTMzNTQ=

  35. Language : English

  36. Default : Yes

  37. Forced : No

  38. Color range : Limited

  39. Color primaries : BT.709

  40. Transfer characteristics : BT.709

  41. Matrix coefficients : BT.709


  42. Audio #1

  43. ID : 2

  44. Format : MLP FBA

  45. Format/Info : Meridian Lossless Packing FBA

  46. Commercial name : Dolby TrueHD

  47. Codec ID : A_TRUEHD

  48. Duration : 1 h 32 min

  49. Bit rate mode : Variable

  50. Bit rate : 3 251 kb/s

  51. Maximum bit rate : 4 926 kb/s

  52. Channel(s) : 8 channels

  53. Channel layout : L R C LFE Ls Rs Lb Rb

  54. Sampling rate : 48.0 kHz

  55. Frame rate : 1 200.000 FPS (40 SPF)

  56. Compression mode : Lossless

  57. Stream size : 2.10 GiB (26%)

  58. Title : English Dolby TrueHD Audio 7.1 @ 3251 kbps

  59. Language : English

  60. Default : Yes

  61. Forced : No


  62. Audio #2

  63. ID : 3

  64. Format : AC-3

  65. Format/Info : Audio Coding 3

  66. Commercial name : Dolby Digital

  67. Codec ID : A_AC3

  68. Duration : 1 h 32 min

  69. Bit rate mode : Constant

  70. Bit rate : 640 kb/s

  71. Channel(s) : 6 channels

  72. Channel layout : L R C LFE Ls Rs

  73. Sampling rate : 48.0 kHz

  74. Frame rate : 31.250 FPS (1536 SPF)

  75. Compression mode : Lossy

  76. Stream size : 423 MiB (5%)

  77. Title : English Dolby Digital Audio 5.1 @ 640 kbps

  78. Language : English

  79. Service kind : Complete Main

  80. Default : No

  81. Forced : No


  82. Audio #3

  83. ID : 4

  84. Format : AC-3

  85. Format/Info : Audio Coding 3

  86. Commercial name : Dolby Digital

  87. Codec ID : A_AC3

  88. Duration : 1 h 32 min

  89. Bit rate mode : Constant

  90. Bit rate : 640 kb/s

  91. Channel(s) : 6 channels

  92. Channel layout : L R C LFE Ls Rs

  93. Sampling rate : 48.0 kHz

  94. Frame rate : 31.250 FPS (1536 SPF)

  95. Compression mode : Lossy

  96. Stream size : 423 MiB (5%)

  97. Title : Cantonese Dolby Digital Audio 5.1 @ 640 kbps

  98. Language : Chinese

  99. Service kind : Complete Main

  100. Default : No

  101. Forced : No


  102. Audio #4

  103. ID : 5

  104. Format : AC-3

  105. Format/Info : Audio Coding 3

  106. Commercial name : Dolby Digital

  107. Codec ID : A_AC3

  108. Duration : 1 h 32 min

  109. Bit rate mode : Constant

  110. Bit rate : 640 kb/s

  111. Channel(s) : 6 channels

  112. Channel layout : L R C LFE Ls Rs

  113. Sampling rate : 48.0 kHz

  114. Frame rate : 31.250 FPS (1536 SPF)

  115. Compression mode : Lossy

  116. Stream size : 423 MiB (5%)

  117. Title : Mandarin Dolby Digital Audio 5.1 @ 640 kbps

  118. Language : Chinese

  119. Service kind : Complete Main

  120. Default : No

  121. Forced : No


  122. Audio #5

  123. ID : 6

  124. Format : AC-3

  125. Format/Info : Audio Coding 3

  126. Commercial name : Dolby Digital

  127. Codec ID : A_AC3

  128. Duration : 1 h 32 min

  129. Bit rate mode : Constant

  130. Bit rate : 224 kb/s

  131. Channel(s) : 2 channels

  132. Channel layout : L R

  133. Sampling rate : 48.0 kHz

  134. Frame rate : 31.250 FPS (1536 SPF)

  135. Compression mode : Lossy

  136. Stream size : 148 MiB (2%)

  137. Title : English Dolby Digital Audio 2.0 @ 224 kbps Commentary 1

  138. Language : English

  139. Service kind : Complete Main

  140. Default : No

  141. Forced : No


  142. Audio #6

  143. ID : 7

  144. Format : AC-3

  145. Format/Info : Audio Coding 3

  146. Commercial name : Dolby Digital

  147. Codec ID : A_AC3

  148. Duration : 1 h 32 min

  149. Bit rate mode : Constant

  150. Bit rate : 224 kb/s

  151. Channel(s) : 2 channels

  152. Channel layout : L R

  153. Sampling rate : 48.0 kHz

  154. Frame rate : 31.250 FPS (1536 SPF)

  155. Compression mode : Lossy

  156. Stream size : 148 MiB (2%)

  157. Title : English Dolby Digital Audio 2.0 @ 224 kbps Commentary 2

  158. Language : English

  159. Service kind : Complete Main

  160. Default : No

  161. Forced : No


  162. Text #1

  163. ID : 8

  164. Format : PGS

  165. Codec ID : S_HDMV/PGS

  166. Codec ID/Info : Picture based subtitle format used on BDs/HD-DVDs

  167. Duration : 1 h 31 min

  168. Bit rate : 45.6 kb/s

  169. Count of elements : 2076

  170. Stream size : 29.9 MiB (0%)

  171. Title : Eng/SUP

  172. Language : English

  173. Default : No

  174. Forced : No


  175. Text #2

  176. ID : 9

  177. Format : PGS

  178. Codec ID : S_HDMV/PGS

  179. Codec ID/Info : Picture based subtitle format used on BDs/HD-DVDs

  180. Duration : 1 h 31 min

  181. Bit rate : 38.0 kb/s

  182. Count of elements : 2270

  183. Stream size : 24.8 MiB (0%)

  184. Title : Cht/SUP 原盘繁体(HK)

  185. Language : Chinese

  186. Default : No

  187. Forced : No


  188. Text #3

  189. ID : 10

  190. Format : PGS

  191. Codec ID : S_HDMV/PGS

  192. Codec ID/Info : Picture based subtitle format used on BDs/HD-DVDs

  193. Duration : 1 h 31 min

  194. Bit rate : 33.8 kb/s

  195. Count of elements : 2206

  196. Stream size : 22.1 MiB (0%)

  197. Title : Cht/SUP 原盘繁体(TW)

  198. Language : Chinese

  199. Default : Yes

  200. Forced : No


  201. Text #4

  202. ID : 11

  203. Format : PGS

  204. Codec ID : S_HDMV/PGS

  205. Codec ID/Info : Picture based subtitle format used on BDs/HD-DVDs

  206. Duration : 1 h 32 min

  207. Bit rate : 76.4 kb/s

  208. Count of elements : 2615

  209. Stream size : 50.4 MiB (1%)

  210. Title : Eng/SUP Commentary 1

  211. Language : English

  212. Default : No

  213. Forced : No


  214. Text #5

  215. ID : 12

  216. Format : PGS

  217. Codec ID : S_HDMV/PGS

  218. Codec ID/Info : Picture based subtitle format used on BDs/HD-DVDs

  219. Duration : 1 h 31 min

  220. Bit rate : 83.4 kb/s

  221. Count of elements : 2793

  222. Stream size : 54.5 MiB (1%)

  223. Title : Eng/SUP Commentary 2

  224. Language : English

  225. Default : No

  226. Forced : No


  227. Menu

  228. 00:00:00.000 : en:第 01 章

  229. 00:02:32.778 : en:第 02 章

  230. 00:08:41.980 : en:第 03 章

  231. 00:11:09.502 : en:第 04 章

  232. 00:18:54.425 : en:第 05 章

  233. 00:27:13.507 : en:第 06 章

  234. 00:30:23.613 : en:第 07 章

  235. 00:32:38.498 : en:第 08 章

  236. 00:40:46.277 : en:第 09 章

  237. 00:48:07.843 : en:第 10 章

  238. 00:52:30.606 : en:第 11 章

  239. 00:56:22.421 : en:第 12 章

  240. 01:00:45.308 : en:第 13 章

  241. 01:03:37.731 : en:第 14 章

  242. 01:04:58.978 : en:第 15 章

  243. 01:07:23.498 : en:第 16 章

  244. 01:10:50.746 : en:第 17 章

  245. 01:14:20.373 : en:第 18 章

  246. 01:18:42.259 : en:第 19 章

  247. 01:22:09.174 : en:第 20 章




复制代码



文件下载


除非特别注明,本文『怪物史瑞克[共4部合集][国粤英多音轨/繁英字幕].Shrek.1-4.2001-2010.BluRay.1080p.3Audio.TrueHD.7.1.x265.10bit-ALT 29.67GB』来源于互联网机器人自动抓取,非本站原创。 浮游电影网不对本文拥有版权,如有侵犯,请联系邮箱:fuyouu#yandex.com[#换成@]投诉。我们会在15个工作日内删除。 但烦请转载时请标明出处:“本文转载于『浮游电影网』,原文地址:https://www.fuyouu.com/21730.html

评论吧骚年!

发表你的见解   

昵称*

E-mail*(建议输入,以便收到博主回复的提示邮件)

验证码*

您可以使用eMule或eMule Mod(Windows)、aMule(Win、Linux、Mac)等软件下载eD2k链接。。
eMule收藏集(.emulecollection)文件是您选中的所有链接的列表文件。eMule可以直接下载它们。
按住SHIFT键选择可以选中多个选择框。
可用文件名和大小选择器来选择文件。
文件名选择器帮您根据文件名称或后缀来选择文件。不分大小写。
符号使用:
和:空格( )、+
不包含:-
或:|
转义:一对英文引号("");
匹配开头:^
匹配结尾:$
例如:
选中所有名称中包含有“eMule”或“0.49c”字眼,但不包含有“exe”字眼的:emule|0.49c -exe
选中所有名称的开头是“eMule”,结尾是“0.49c”的:^emule 0.49c$
选中所有名称中带有“eMule 0.49c”的(必须是“eMule 0.49c”,中间没有别的字符,不能是“eMule fake 0.49c”),需要转义:"emule 0.49c"
大小选择器帮您根据文件大小选择文件。