当前位置: 首页 >> 动画电影 >> 萨米大冒险[共2部合集][国英多音轨/简繁英字幕].Sammys.Adventures.1-2.2010-2012.BluRay.1080p.2Audio.DTS-HD.MA.5.1.x265.10b >> 正文

萨米大冒险[共2部合集][国英多音轨/简繁英字幕].Sammys.Adventures.1-2.2010-2012.BluRay.1080p.2Audio.DTS-HD.MA.5.1.x265.10b

2022年04月27日 15:41:48     电影发布:来源于网络     电影分类:动画电影     评论(0)    

萨米大冒险[共2部合集][国英多音轨/简繁英字幕].Sammys.Adventures.1 2.2010 2012.BluRay.1080p.2Audio.DTS HD.MA.5.1.x265.10b  动画电影  第1张

◎译 名 萨米大冒险 / 森美海底历险(港) / 小海龟大历险 / Sammy' s Adventure: The Secret Passage

◎片 名 Le Voyage extraordinaire de Samy

◎年 代 2010

◎产 地 比利时 / 法国

◎类 别 动画 / 冒险

◎语 言 英语

◎上映日期 2012-09-30(中国大陆) / 2010-08-04(比利时)

◎IMDb链接 https://www.imdb.com/title/tt1230204/

◎豆瓣评分 6.9/10 (4134人评价)

◎豆瓣链接 https://movie.douban.com/subject/3074533/

◎片 长 85分钟

◎导 演 本·斯塔森 Ben Stassen (id:1298282)

◎编 剧 多米尼克·帕里斯 Domonic Paris (id:1323287)

◎演 员 蒂姆·克里 Tim Curry (id:1002686)

詹尼·麦卡锡 Jenny McCarthy (id:1041106)

安东尼·安德森 Anthony Anderson (id:1022670)

梅兰尼·格里菲斯 Melanie Griffith (id:1025204)

小艾德·博格里 Ed Begley Jr. (id:1049729)

斯泰西·基齐 Stacy Keach (id:1019075)

柯斯汀·科佩尔 Kierstin Koppel (id:1009606)

伊莎贝拉·弗尔曼 Isabelle Fuhrman (id:1013784)

罗伯特·席安 Robert Sheehan (id:1013911)

约翰·赫特 John Hurt (id:1004587)

阿克塞尔·施泰因 Axel Stein (id:1150800)

崔雪莉 Seol-ri Choi (id:1314646)

Sydney Hope Banner (id:1273371)

Eric Unger (id:1257181)

Denis Kacenga (id:1229689)

Heather Trzyna (id:1229284)

Darren Capozzi (id:1224455)

比利·安格 Billy Unger (id:1027461)

凯西·格里芬 Kathy Griffin (id:1041119)

帕特·卡洛尔 Pat Carroll (id:1048205)

琪琪·珀露 Gigi Perreau (id:1007122)

本·斯塔森 Ben Stassen (id:1298282)

Adrian Politowski Adrian Politowski (id:1029316)

拉民·贾瓦迪 Ramin Djawadi (id:1302385)

◎简 介

阳光明媚、寂静平和的海滩,一群小海龟孵化出壳,他们摆动着稚嫩的臂膀,奋力向大海爬去。名叫萨米(比利·安格 Billy Unger 配音)的小海龟最后爬出蛋壳,但是他怎么也无法爬出沙坑。焦急时分,塞米更被海鸟捉到空中,眼看就成为了对方的点心。混乱之际,他结识了美丽的女孩莎莉(伊莎贝拉·弗尔曼 Isabelle Fuhrman 配音)。此后,他乘坐轮船的碎木板像海洋中心飘去,偶然遇到了他一生的好朋友雷。

在此后的50年里,两个小家伙乘坐破木板周游世界,见识了海洋各处的美景奇观,也经历着人类为了私欲对海洋做出的无可弥补的破坏,他们的冒险从未结束……

◎获奖情况 (共1项)

第23届欧洲电影奖 (2010)

最佳动画片(提名)

  1. 合集文件列表:

  2. 1.Sammys.Adventure.The.Secret.Passage.2010.BluRay.1080p.2Audio.DTS-HD.MA.5.1.x265.10bit-ALT.mkv 6.32GB

  3. 2.Sammys.Adventures.2.2012.BluRay.1080p.DTS-HD.MA.5.1.x265.10bit-ALT.mkv 6.88GB


复制代码

  1. ##### MediaInfo ######

  2. General

  3. Unique ID : 310301916613806279272348413549466504581 (0xE971F9AD4EFACB0E910E8A1DE3824D85)

  4. Complete name : Sammys.Adventure.The.Secret.Passage.2010.BluRay.1080p.2Audio.DTS-HD.MA.5.1.x265.10bit-ALT.mkv

  5. Format : Matroska

  6. Format version : Version 4

  7. File size : 6.32 GiB

  8. Duration : 1 h 25 min

  9. Overall bit rate mode : Variable

  10. Overall bit rate : 10.6 Mb/s

  11. Encoded date : UTC 2021-06-02 09:33:21

  12. Writing application : mkvmerge v49.0.0 ('Sick Of Losing Soulmates') 64-bit

  13. Writing library : libebml v1.4.0 + libmatroska v1.6.1


  14. Video

  15. ID : 1

  16. Format : HEVC

  17. Format/Info : High Efficiency Video Coding

  18. Format profile : Main [email protected]@High

  19. Codec ID : V_MPEGH/ISO/HEVC

  20. Duration : 1 h 25 min

  21. Bit rate : 7 977 kb/s

  22. Width : 1 920 pixels

  23. Height : 1 080 pixels

  24. Display aspect ratio : 16:9

  25. Frame rate mode : Constant

  26. Frame rate : 23.976 (24000/1001/53354) FPS

  27. Color space : YUV

  28. Chroma subsampling : 4:2:0

  29. Bit depth : 10 bits

  30. Bits/(Pixel*Frame) : 0.160

  31. Stream size : 4.76 GiB (75%)

  32. Title : HEVC, [email protected]@High, 24/1.001 fps @ 7977 kbps

  33. Writing library : x265 3.4+14-gd419c7152:[Windows][GCC 10.2.0][64 bit] 10bit

  34. Encoding settings : cpuid=533541111039 / frame-threads=4 / numa-pools=16 / wpp / pmode / pme / no-psnr / no-ssim / log-level=2 / input-csp=1 / input-res=1920x1080 / interlace=0 / total-frames=122928 / level-idc=51 / high-tier=1 / uhd-bd=0 / ref=5 / no-allow-non-conformance / no-repeat-headers / annexb / no-aud / no-hrd / info / hash=0 / no-temporal-layers / open-gop / min-keyint=24 / keyint=240 / gop-lookahead=0 / bframes=6 / b-adapt=2 / b-pyramid / bframe-bias=0 / rc-lookahead=40 / lookahead-slices=0 / NTMzNTQ=uuDQuD2mJt9fsCf / scenecut=40 / hist-scenecut=0 / radl=0 / no-splice / no-intra-refresh / ctu=32 / min-cu-size=8 / no-rect / no-amp / max-tu-size=32 / tu-inter-depth=3 / tu-intra-depth=3 / limit-tu=4 / rdoq-level=2 / dynamic-rd=0.00 / no-ssim-rd / signhide / no-tskip / nr-intra=0 / nr-inter=0 / no-constrained-intra / no-strong-intra-smoothing / max-merge=4 / limit-refs=1 / limit-modes / me=3 / subme=4 / merange=25 / temporal-mvp / no-frame-dup / no-hme / weightp / weightb / no-analyze-src-pics / deblock=-3:-3 / no-sao / no-sao-non-deblock / rd=6 / selective-sao=0 / no-early-skip / rskip / no-fast-intra / no-tskip-fast / no-cu-lossless / b-intra / no-splitrd-skip / rdpenalty=0 / psy-rd=2.00 / psy-rdoq=1.00 / no-rd-refine / no-lossless / cbqpoffs=0 / crqpoffs=0 / rc=crf / crf=17.0 / qcomp=0.65 / qpstep=4 / stats-write=0 / stats-read=0 / vbv-maxrate=80000 / vbv-bufsize=80000 / vbv-init=0.9 / crf-max=0.0 / crf-min=0.0 / ipratio=1.40 / pbratio=1.30 / aq-mode=2 / aq-strength=0.85 / cutree / zone-count=0 / no-strict-cbr / qg-size=32 / no-rc-grain / qpmax=69 / qpmin=0 / no-const-vbv / sar=1 / overscan=0 / videoformat=5 / range=0 / colorprim=1 / transfer=1 / colormatrix=1 / chromaloc=0 / display-window=0 / cll=0,0 / min-luma=0 / max-luma=1023 / log2-max-poc-lsb=8 / vui-timing-info / vui-hrd-info / slices=1 / no-opt-qp-pps / no-opt-ref-list-length-pps / no-multi-pass-opt-rps / scenecut-bias=0.05 / hist-threshold=0.03 / no-opt-cu-delta-qp / no-aq-motion / no-hdr10 / no-hdr10-opt / no-dhdr10-opt / no-idr-recovery-sei / analysis-reuse-level=0 / analysis-save-reuse-level=0 / analysis-load-reuse-level=0 / scale-factor=0 / refine-intra=0 / refine-inter=0 / refine-mv=1 / refine-ctu-distortion=0 / no-limit-sao / ctu-info=0 / no-lowpass-dct / refine-analysis-type=0 / copy-pic=1 / max-ausize-factor=1.0 / no-dynamic-refine / no-single-sei / no-hevc-aq / no-svt / no-field / qp-adaptation-range=1.00 / no-scenecut-aware-qpconformance-window-offsets / right=0 / bottom=0 / NTMzNTQ= / decoder-max-rate=0

  35. Language : English

  36. Default : Yes

  37. Forced : No

  38. Color range : Limited

  39. Color primaries : BT.709

  40. Transfer characteristics : BT.709

  41. Matrix coefficients : BT.709


  42. Audio #1

  43. ID : 2

  44. Format : DTS XLL

  45. Format/Info : Digital Theater Systems

  46. Commercial name : DTS-HD Master Audio

  47. Codec ID : A_DTS

  48. Duration : 1 h 25 min

  49. Bit rate mode : Variable

  50. Bit rate : 2 064 kb/s

  51. Channel(s) : 6 channels

  52. Channel layout : C L R Ls Rs LFE

  53. Sampling rate : 48.0 kHz

  54. Frame rate : 93.750 FPS (512 SPF)

  55. Bit depth : 16 bits

  56. Compression mode : Lossless

  57. Stream size : 1.23 GiB (20%)

  58. Title : English DTS-HD Master Audio 5.1 @ 2069 kbp

  59. Language : English

  60. Default : Yes

  61. Forced : No


  62. Audio #2

  63. ID : 3

  64. Format : AC-3

  65. Format/Info : Audio Coding 3

  66. Commercial name : Dolby Digital

  67. Codec ID : A_AC3

  68. Duration : 1 h 25 min

  69. Bit rate mode : Constant

  70. Bit rate : 448 kb/s

  71. Channel(s) : 6 channels

  72. Channel layout : L R C LFE Ls Rs

  73. Sampling rate : 48.0 kHz

  74. Frame rate : 31.250 FPS (1536 SPF)

  75. Compression mode : Lossy

  76. Stream size : 274 MiB (4%)

  77. Title : Mandarin Dolby Digital Audio 5.1 @ 448 kbps

  78. Language : Chinese

  79. Service kind : Complete Main

  80. Default : No

  81. Forced : No


  82. Text #1

  83. ID : 4

  84. Format : PGS

  85. Codec ID : S_HDMV/PGS

  86. Codec ID/Info : Picture based subtitle format used on BDs/HD-DVDs

  87. Duration : 1 h 18 min

  88. Bit rate : 41.2 kb/s

  89. Count of elements : 2027

  90. Stream size : 23.2 MiB (0%)

  91. Title : Eng/SUP

  92. Language : English

  93. Default : No

  94. Forced : No


  95. Text #2

  96. ID : 5

  97. Format : PGS

  98. Codec ID : S_HDMV/PGS

  99. Codec ID/Info : Picture based subtitle format used on BDs/HD-DVDs

  100. Duration : 1 h 18 min

  101. Bit rate : 29.7 kb/s

  102. Count of elements : 2141

  103. Stream size : 16.7 MiB (0%)

  104. Title : Chs/SUP 原盘简体

  105. Language : Chinese

  106. Default : Yes

  107. Forced : No


  108. Text #3

  109. ID : 6

  110. Format : PGS

  111. Codec ID : S_HDMV/PGS

  112. Codec ID/Info : Picture based subtitle format used on BDs/HD-DVDs

  113. Duration : 1 h 18 min

  114. Bit rate : 30.8 kb/s

  115. Count of elements : 2141

  116. Stream size : 17.3 MiB (0%)

  117. Title : Cht/SUP 原盘繁体

  118. Language : Chinese

  119. Default : No

  120. Forced : No


  121. Menu

  122. 00:00:00.000 : en:第 01 章

  123. 00:08:24.963 : en:第 02 章

  124. 00:16:08.968 : en:第 03 章

  125. 00:24:31.970 : en:第 04 章

  126. 00:32:35.996 : en:第 05 章

  127. 00:41:24.982 : en:第 06 章

  128. 00:48:00.920 : en:第 07 章

  129. 00:56:44.943 : en:第 08 章

  130. 01:04:55.100 : en:第 09 章

  131. 01:13:00.918 : en:第 10 章




复制代码



文件下载


除非特别注明,本文『萨米大冒险[共2部合集][国英多音轨/简繁英字幕].Sammys.Adventures.1-2.2010-2012.BluRay.1080p.2Audio.DTS-HD.MA.5.1.x265.10b』来源于互联网机器人自动抓取,非本站原创。 浮游电影网不对本文拥有版权,如有侵犯,请联系邮箱:fuyouu#yandex.com[#换成@]投诉。我们会在15个工作日内删除。 但烦请转载时请标明出处:“本文转载于『浮游电影网』,原文地址:https://www.fuyouu.com/21729.html

评论吧骚年!

发表你的见解   

昵称*

E-mail*(建议输入,以便收到博主回复的提示邮件)

验证码*

您可以使用eMule或eMule Mod(Windows)、aMule(Win、Linux、Mac)等软件下载eD2k链接。。
eMule收藏集(.emulecollection)文件是您选中的所有链接的列表文件。eMule可以直接下载它们。
按住SHIFT键选择可以选中多个选择框。
可用文件名和大小选择器来选择文件。
文件名选择器帮您根据文件名称或后缀来选择文件。不分大小写。
符号使用:
和:空格( )、+
不包含:-
或:|
转义:一对英文引号("");
匹配开头:^
匹配结尾:$
例如:
选中所有名称中包含有“eMule”或“0.49c”字眼,但不包含有“exe”字眼的:emule|0.49c -exe
选中所有名称的开头是“eMule”,结尾是“0.49c”的:^emule 0.49c$
选中所有名称中带有“eMule 0.49c”的(必须是“eMule 0.49c”,中间没有别的字符,不能是“eMule fake 0.49c”),需要转义:"emule 0.49c"
大小选择器帮您根据文件大小选择文件。