当前位置: 首页 >> 港台电影 >> 暗战[共2部合集][国粤英多音轨/繁英字幕].Running.Out.Of.Time.1-2.1999-2001.BluRay.1080p.2Audio.TrueHD.7.1.x265.10bit-A >> 正文

暗战[共2部合集][国粤英多音轨/繁英字幕].Running.Out.Of.Time.1-2.1999-2001.BluRay.1080p.2Audio.TrueHD.7.1.x265.10bit-A

2022年04月27日 15:39:56     电影发布:来源于网络     电影分类:港台电影     评论(0)    

暗战[共2部合集][国粤英多音轨/繁英字幕].Running.Out.Of.Time.1 2.1999 2001.BluRay.1080p.2Audio.TrueHD.7.1.x265.10bit A  港台电影  第1张

◎译 名 暗战 / 谈判专家(台) / Running Out of Time

◎片 名 暗戰

◎年 代 1999

◎产 地 中国香港

◎类 别 剧情 / 动作 / 犯罪

◎语 言 粤语 / 英语

◎上映日期 1999-09-23(中国香港)

◎IMDb链接 https://www.imdb.com/title/tt0216165/

◎豆瓣评分 8.5/10 (219324人评价)

◎豆瓣链接 https://movie.douban.com/subject/1298898/

◎片 长 93 分钟

◎导 演 杜琪峰 Johnnie To (id:1160186)

◎编 剧 游乃海 Nai-Hoi Yau (id:1161310)

劳伦特·考蒂奥德 Laurent Courtiaud (id:1049166)

朱连·卡邦 Julien Carbon (id:1280062)

◎演 员 刘德华 Andy Lau (id:1054424)

刘青云 Sean Lau (id:1007251)

蒙嘉慧 YoYo Mung (id:1023881)

李子雄 Waise Lee (id:1037662)

许绍雄 Siu-Hung Hui (id:1274449)

林雪 Suet Lam (id:1274279)

黄卓玲 Ruby Wong (id:1301203)

艾威 Wei Ai (id:1314143)

林伟健 Oscar Lam Wai-Kin (id:1314711)

洪伟良 Wai Leung Hung (id:1365224)

罗靖庭 Ching Ting Law (id:1364461)

邱万城 Samuel Yau (id:1371631)

张浚鸿 Chun Hung Cheung (id:1349132)

李子明 Chi Ming Lee (id:1423486)

李寿祺 Sau Kei Lee (id:1025912)

罗永昌 Wing-cheong Law (id:1274489)

黄华和 Wah Wo Wong (id:1355706)

苏恩磁 Ceci So Yan Chee (id:1345877)

谭王鸿 Wing Hung Tam (id:1339962)

杜琪峰 Johnnie To (id:1160186)

向华强 Charles Heung (id:1037691)

黄英华 Ying-Wah Wong (id:1301204)

郑兆强 Siu-keung Cheng (id:1280597)

陈志伟 Chi Wai Chan (id:1280415)

邓汝好 Pat Tang Yu-Ho (id:1403989)

罗永昌 Wing-cheong Law (id:1274489)

周朴夫 Pok-fu Chow (id:1359524)

◎简 介

大盗张彼德(刘德华)得知生命只剩四周时,决定为死于黑道老大(李子雄)之手的父亲报仇,为此他精心设计打劫了黑道老大的运输公司隔壁的财务公司,并挟持人质引来因得罪上级被转调文职的高级谈判专家何尚生(刘青云)。

何尚生在同张彼德展开追逐时,虽屡战屡败,却渐了解到黑帮老大实则借 助运输公司做非法走私珠宝的生意,于是同张彼德化敌为友,携手同黑帮势力展开了斗智斗勇的游戏。而张彼德在逃避何尚生追逐的过程中无意结识女孩梁婉婷(蒙嘉慧)后,在生命的尽头获得一份浪漫奇缘。

◎获奖情况 (共6项)

第19届香港电影金像奖 (2000)

最佳电影(提名)

└──杜琪峰 (id:1160186)

最佳导演(提名)

└──杜琪峰 (id:1160186)

最佳编剧(提名)

最佳男主角

└──刘德华 (id:1054424)

最佳男配角(提名)

└──许绍雄 (id:1274449)

最佳剪接(提名)

└──陈志伟 (id:1280415)

  1. 合集文件列表:

  2. 1.Running.Out.Of.Time.2.2001.BluRay.1080p.2Audio.TrueHD.7.1.x265.10bit-ALT.mkv 9.85GB

  3. 2.Running.Out.Of.Time.1999.BluRay.1080p.2Audio.TrueHD.7.1.x265.10bit-ALT.mkv 9.95GB


复制代码

  1. ##### MediaInfo ######

  2. General

  3. Unique ID : 229836242015847344472154551908165994344 (0xACE8D99EDE1285CA92827875CFF7C768)

  4. Complete name : Running.Out.Of.Time.2.2001.BluRay.1080p.2Audio.TrueHD.7.1.x265.10bit-ALT.mkv

  5. Format : Matroska

  6. Format version : Version 4

  7. File size : 9.85 GiB

  8. Duration : 1 h 35 min

  9. Overall bit rate mode : Variable

  10. Overall bit rate : 14.8 Mb/s

  11. Encoded date : UTC 2020-05-05 13:00:34

  12. Writing application : mkvmerge v46.0.0 ('No Deeper Escape') 64-bit

  13. Writing library : libebml v1.3.10 + libmatroska v1.5.2


  14. Video

  15. ID : 1

  16. Format : HEVC

  17. Format/Info : High Efficiency Video Coding

  18. Format profile : Main [email protected]@High

  19. Codec ID : V_MPEGH/ISO/HEVC

  20. Duration : 1 h 35 min

  21. Bit rate : 9 638 kb/s

  22. Width : 1 920 pixels

  23. Height : 1 080 pixels

  24. Display aspect ratio : 16:9

  25. Frame rate mode : Constant

  26. Frame rate : 24.000 FPS

  27. Color space : YUV

  28. Chroma subsampling : 4:2:0

  29. Bit depth : 10 bits

  30. Bits/(Pixel*Frame) : 0.194

  31. Stream size : 6.43 GiB (65%)

  32. Title : HEVC, [email protected]@High, 24 fps @ 9637 kbps

  33. Writing library : x265 3.3+1-g396395b2b:[Windows][GCC 9.2.0][64 bit] 10bit

  34. Encoding settings : cpuid=533541111039 / frame-threads=5 / numa-pools=44,44 / wpp / pmode / pme / no-psnr / no-ssim / log-level=2 / input-csp=1 / input-res=1920x1080 / interlace=0 / total-frames=137633 / level-idc=51 / high-tier=1 / uhd-bd=0 / ref=5 / no-allow-non-conformance / no-repeat-headers / annexb / no-aud / no-hrd / info / hash=0 / no-temporal-layers / open-gop / min-keyint=24 / keyint=240 / gop-lookahead=0 / bframes=6 / b-adapt=2 / b-pyramid / bframe-bias=0 / rc-lookahead=40 / lookahead-slices=0 / NTMzNTQ=uuDQuD2mJt9fsCf / scenecut=40 / hist-scenecut=0 / radl=0 / no-splice / no-intra-refresh / ctu=32 / min-cu-size=8 / no-rect / no-amp / max-tu-size=32 / tu-inter-depth=3 / tu-intra-depth=3 / limit-tu=4 / rdoq-level=2 / dynamic-rd=0.00 / no-ssim-rd / signhide / no-tskip / nr-intra=0 / nr-inter=0 / no-constrained-intra / no-strong-intra-smoothing / max-merge=4 / limit-refs=1 / limit-modes / me=3 / subme=4 / merange=25 / temporal-mvp / no-frame-dup / no-hme / weightp / weightb / no-analyze-src-pics / deblock=-3:-3 / no-sao / no-sao-non-deblock / rd=6 / selective-sao=0 / no-early-skip / rskip / no-fast-intra / no-tskip-fast / no-cu-lossless / b-intra / no-splitrd-skip / rdpenalty=0 / psy-rd=2.00 / psy-rdoq=1.00 / no-rd-refine / no-lossless / cbqpoffs=0 / crqpoffs=0 / rc=crf / crf=18.5 / qcomp=0.65 / qpstep=4 / stats-write=0 / stats-read=0 / vbv-maxrate=80000 / vbv-bufsize=80000 / vbv-init=0.9 / crf-max=0.0 / crf-min=0.0 / ipratio=1.40 / pbratio=1.30 / aq-mode=2 / aq-strength=0.85 / cutree / zone-count=0 / no-strict-cbr / qg-size=32 / no-rc-grain / qpmax=69 / qpmin=0 / no-const-vbv / sar=1 / overscan=0 / videoformat=5 / range=0 / colorprim=1 / transfer=1 / colormatrix=1 / chromaloc=0 / display-window=0 / cll=0,0 / min-luma=0 / max-luma=1023 / log2-max-poc-lsb=8 / vui-timing-info / vui-hrd-info / slices=1 / no-opt-qp-pps / no-opt-ref-list-length-pps / no-multi-pass-opt-rps / scenecut-bias=0.05 / hist-threshold=0.01 / no-opt-cu-delta-qp / no-aq-motion / no-hdr10 / no-hdr10-opt / no-dhdr10-opt / no-idr-recovery-sei / analysis-reuse-level=0 / analysis-save-reuse-level=0 / analysis-load-reuse-level=0 / scale-factor=0 / refine-intra=0 / refine-inter=0 / refine-mv=1 / refine-ctu-distortion=0 / no-limit-sao / ctu-info=0 / no-lowpass-dct / refine-analysis-type=0 / copy-pic=1 / max-ausize-factor=1.0 / no-dynamic-refine / no-single-sei / no-hevc-aq / no-svt / no-field / qp-adaptation-range=1.00 / no-scenecut-aware-qpconformance-window-offsets / right=0 / bottom=0 / NTMzNTQ=

  35. Language : English

  36. Default : Yes

  37. Forced : No

  38. Color range : Limited

  39. Color primaries : BT.709

  40. Transfer characteristics : BT.709

  41. Matrix coefficients : BT.709


  42. Audio #1

  43. ID : 2

  44. Format : MLP FBA

  45. Format/Info : Meridian Lossless Packing FBA

  46. Commercial name : Dolby TrueHD

  47. Codec ID : A_TRUEHD

  48. Duration : 1 h 35 min

  49. Bit rate mode : Variable

  50. Bit rate : 3 738 kb/s

  51. Maximum bit rate : 5 622 kb/s

  52. Channel(s) : 8 channels

  53. Channel layout : L R C LFE Ls Rs Lb Rb

  54. Sampling rate : 48.0 kHz

  55. Frame rate : 1 200.000 FPS (40 SPF)

  56. Compression mode : Lossless

  57. Stream size : 2.49 GiB (25%)

  58. Title : Cantonese Dolby TrueHD 7.1 @ 3686 kbps

  59. Language : Chinese

  60. Default : Yes

  61. Forced : No


  62. Audio #2

  63. ID : 3

  64. Format : AC-3

  65. Format/Info : Audio Coding 3

  66. Commercial name : Dolby Digital

  67. Codec ID : A_AC3

  68. Duration : 1 h 35 min

  69. Bit rate mode : Constant

  70. Bit rate : 640 kb/s

  71. Channel(s) : 6 channels

  72. Channel layout : L R C LFE Ls Rs

  73. Sampling rate : 48.0 kHz

  74. Frame rate : 31.250 FPS (1536 SPF)

  75. Compression mode : Lossy

  76. Stream size : 437 MiB (4%)

  77. Title : Cantonese AC3 5.1-EX @ 640 kbps

  78. Language : Chinese

  79. Service kind : Complete Main

  80. Default : No

  81. Forced : No


  82. Audio #3

  83. ID : 4

  84. Format : AC-3

  85. Format/Info : Audio Coding 3

  86. Commercial name : Dolby Digital

  87. Codec ID : A_AC3

  88. Duration : 1 h 35 min

  89. Bit rate mode : Constant

  90. Bit rate : 640 kb/s

  91. Channel(s) : 6 channels

  92. Channel layout : L R C LFE Ls Rs

  93. Sampling rate : 48.0 kHz

  94. Frame rate : 31.250 FPS (1536 SPF)

  95. Compression mode : Lossy

  96. Stream size : 437 MiB (4%)

  97. Title : Mandarin AC3 5.1-EX @ 640 kbps

  98. Language : Chinese

  99. Service kind : Complete Main

  100. Default : No

  101. Forced : No


  102. Text #1

  103. ID : 5

  104. Format : PGS

  105. Codec ID : S_HDMV/PGS

  106. Codec ID/Info : Picture based subtitle format used on BDs/HD-DVDs

  107. Duration : 1 h 29 min

  108. Bit rate : 24.2 kb/s

  109. Count of elements : 1688

  110. Stream size : 15.5 MiB (0%)

  111. Title : Cht/SUP 原盘繁体

  112. Language : Chinese

  113. Default : Yes

  114. Forced : No


  115. Text #2

  116. ID : 6

  117. Format : PGS

  118. Codec ID : S_HDMV/PGS

  119. Codec ID/Info : Picture based subtitle format used on BDs/HD-DVDs

  120. Duration : 1 h 29 min

  121. Bit rate : 22.6 kb/s

  122. Count of elements : 1688

  123. Stream size : 14.5 MiB (0%)

  124. Title : Eng/SUP

  125. Language : English

  126. Default : No

  127. Forced : No


  128. Menu

  129. 00:00:00.000 : en:第 01 章

  130. 00:05:43.167 : en:第 02 章

  131. 00:10:44.375 : en:第 03 章

  132. 00:15:06.583 : en:第 04 章

  133. 00:19:20.500 : en:第 05 章

  134. 00:22:22.083 : en:第 06 章

  135. 00:26:07.458 : en:第 07 章

  136. 00:30:49.583 : en:第 08 章

  137. 00:34:02.208 : en:第 09 章

  138. 00:38:56.625 : en:第 10 章

  139. 00:43:20.458 : en:第 11 章

  140. 00:46:36.083 : en:第 12 章

  141. 00:51:29.208 : en:第 13 章

  142. 00:56:04.917 : en:第 14 章

  143. 01:02:56.333 : en:第 15 章

  144. 01:07:51.000 : en:第 16 章

  145. 01:13:46.250 : en:第 17 章

  146. 01:17:53.250 : en:第 18 章

  147. 01:22:55.083 : en:第 19 章

  148. 01:29:25.792 : en:第 20 章




复制代码



文件下载


除非特别注明,本文『暗战[共2部合集][国粤英多音轨/繁英字幕].Running.Out.Of.Time.1-2.1999-2001.BluRay.1080p.2Audio.TrueHD.7.1.x265.10bit-A』来源于互联网机器人自动抓取,非本站原创。 浮游电影网不对本文拥有版权,如有侵犯,请联系邮箱:fuyouu#yandex.com[#换成@]投诉。我们会在15个工作日内删除。 但烦请转载时请标明出处:“本文转载于『浮游电影网』,原文地址:https://www.fuyouu.com/21727.html

评论吧骚年!

发表你的见解   

昵称*

E-mail*(建议输入,以便收到博主回复的提示邮件)

验证码*

您可以使用eMule或eMule Mod(Windows)、aMule(Win、Linux、Mac)等软件下载eD2k链接。。
eMule收藏集(.emulecollection)文件是您选中的所有链接的列表文件。eMule可以直接下载它们。
按住SHIFT键选择可以选中多个选择框。
可用文件名和大小选择器来选择文件。
文件名选择器帮您根据文件名称或后缀来选择文件。不分大小写。
符号使用:
和:空格( )、+
不包含:-
或:|
转义:一对英文引号("");
匹配开头:^
匹配结尾:$
例如:
选中所有名称中包含有“eMule”或“0.49c”字眼,但不包含有“exe”字眼的:emule|0.49c -exe
选中所有名称的开头是“eMule”,结尾是“0.49c”的:^emule 0.49c$
选中所有名称中带有“eMule 0.49c”的(必须是“eMule 0.49c”,中间没有别的字符,不能是“eMule fake 0.49c”),需要转义:"emule 0.49c"
大小选择器帮您根据文件大小选择文件。