当前位置: 首页 >> 国产电影 >> 梦想演说家[国语配音/中文字幕].Dream.Speaker.2022.2160p.60Fps.WEB-DL.H265.HDR.AAC-CTRLWEB 3.90GB >> 正文

梦想演说家[国语配音/中文字幕].Dream.Speaker.2022.2160p.60Fps.WEB-DL.H265.HDR.AAC-CTRLWEB 3.90GB

2022年04月27日 15:39:01     电影发布:来源于网络     电影分类:国产电影     评论(0)    

梦想演说家[国语配音/中文字幕].Dream.Speaker.2022.2160p.60Fps.WEB DL.H265.HDR.AAC CTRLWEB 3.90GB  国产电影  第1张

◎译 名 梦想演说家

◎年 代 2022

◎产 地 中国大陆

◎语 言 汉语普通话

◎上映日期 2022-03-26(中国大陆)

◎IMDb链接 https://www.imdb.com/title//

◎豆瓣链接 https://movie.douban.com/subject/34949765/

◎片 长 95分钟

◎导 演 陈剑 Jian Chen (id:1353609)

张勇谋 Yongmou Zhang (id:1334567)

◎演 员 王蕾 Lei Wang (id:1391718)

王劲松 Jinsong Wang (id:1315687)

李学政 Xuezheng Li (id:1371764)

郭赫轩 Hexuan Guo (id:1410498)

彭梓洋 Ziyang Peng (id:1394910)

彭博 Bo Peng (id:1452340)

张子俊 Zijun Zhang (id:1450071)

金良 Liang Jin (id:1452341)

王劲松 Jinsong Wang (id:1313468)

包蕾 Lei Bao (id:1277845)

彭博 Bo Peng (id:1452340)

◎简 介

《梦想演说家》讲述了当上天为你关上一扇门时,往往他会为你打开另外一扇门!故事讲述一位患有严重口吃和听力障碍的保安通过父母的关愛、尤其是“退伍不褪色军人”身份的父亲的严厉、激励、鼓励下,踏上人生征程,偶遇丰师父指导帮助;遇上生命中的另一半…加上自己坚强的毅力和奋斗不息的精神,战胜听力障碍的恐惧,克服了口吃顽疾,自学大学课程成才,并成为了一名出色的推销员和企业精英,在企业危机时刻,通过自己的营销口才力挽狂澜,历尽千辛万苦,最终跃身成为一代演说家的故事。

  1. ##### MediaInfo ######

  2. General

  3. Complete name : Dream.Speaker.2022.2160p.60Fps.WEB-DL.H265.HDR.AAC-CTRLWEB.mp4

  4. Format : MPEG-4

  5. Format profile : Base Media

  6. Codec ID : isom (isom/iso2/mp41)

  7. File size : 3.90 GiB

  8. Duration : 1 h 35 min

  9. Overall bit rate mode : Variable

  10. Overall bit rate : 5 866 kb/s

  11. Recorded date : 2022-04-27T09:20:22.6336468+08:00

  12. Writing application : Lavf58.32.104


  13. Video

  14. ID : 1

  15. Format : HEVC

  16. Format/Info : High Efficiency Video Coding

  17. Format profile : Main [email protected]@Main

  18. Codec ID : hev1

  19. Codec ID/Info : High Efficiency Video Coding

  20. Duration : 1 h 35 min

  21. Bit rate : 5 663 kb/s

  22. Width : 3 840 pixels

  23. Height : 1 636 pixels

  24. Display aspect ratio : 2.35:1

  25. Frame rate mode : Constant

  26. Frame rate : 60.000 FPS

  27. Color space : YUV

  28. Chroma subsampling : 4:2:0

  29. Bit depth : 10 bits

  30. Bits/(Pixel*Frame) : 0.015

  31. Stream size : 3.76 GiB (97%)

  32. Color range : Limited

  33. Color primaries : BT.709

  34. Transfer characteristics : BT.709

  35. Matrix coefficients : BT.709

  36. Codec configuration box : hvcC


  37. Audio

  38. ID : 2

  39. Format : AAC LC

  40. Format/Info : Advanced Audio Codec Low Complexity

  41. Codec ID : mp4a-40-2

  42. Duration : 1 h 35 min

  43. Bit rate mode : Variable

  44. Bit rate : 192 kb/s

  45. Channel(s) : 2 channels

  46. Channel layout : L R

  47. Sampling rate : 44.1 kHz

  48. Frame rate : 43.066 FPS (1024 SPF)

  49. Compression mode : Lossy

  50. Stream size : 129 MiB (3%)

  51. Default : Yes

  52. Alternate group : 1




复制代码



文件下载


除非特别注明,本文『梦想演说家[国语配音/中文字幕].Dream.Speaker.2022.2160p.60Fps.WEB-DL.H265.HDR.AAC-CTRLWEB 3.90GB』来源于互联网机器人自动抓取,非本站原创。 浮游电影网不对本文拥有版权,如有侵犯,请联系邮箱:fuyouu#yandex.com[#换成@]投诉。我们会在15个工作日内删除。 但烦请转载时请标明出处:“本文转载于『浮游电影网』,原文地址:https://www.fuyouu.com/21726.html

评论吧骚年!

发表你的见解   

昵称*

E-mail*(建议输入,以便收到博主回复的提示邮件)

验证码*

您可以使用eMule或eMule Mod(Windows)、aMule(Win、Linux、Mac)等软件下载eD2k链接。。
eMule收藏集(.emulecollection)文件是您选中的所有链接的列表文件。eMule可以直接下载它们。
按住SHIFT键选择可以选中多个选择框。
可用文件名和大小选择器来选择文件。
文件名选择器帮您根据文件名称或后缀来选择文件。不分大小写。
符号使用:
和:空格( )、+
不包含:-
或:|
转义:一对英文引号("");
匹配开头:^
匹配结尾:$
例如:
选中所有名称中包含有“eMule”或“0.49c”字眼,但不包含有“exe”字眼的:emule|0.49c -exe
选中所有名称的开头是“eMule”,结尾是“0.49c”的:^emule 0.49c$
选中所有名称中带有“eMule 0.49c”的(必须是“eMule 0.49c”,中间没有别的字符,不能是“eMule fake 0.49c”),需要转义:"emule 0.49c"
大小选择器帮您根据文件大小选择文件。