当前位置: 首页 >> 国产电影 >> 快把我哥带走[杜比视界版本][国语配音/中文字幕].Go.Brother.2018.2160p.WEB-DL.DV.H265.DDP5.1-CTRLWEB 14.39GB >> 正文

快把我哥带走[杜比视界版本][国语配音/中文字幕].Go.Brother.2018.2160p.WEB-DL.DV.H265.DDP5.1-CTRLWEB 14.39GB

2022年04月27日 15:34:57     电影发布:来源于网络     电影分类:国产电影     评论(0)    

快把我哥带走[杜比视界版本][国语配音/中文字幕].Go.Brother.2018.2160p.WEB DL.DV.H265.DDP5.1 CTRLWEB 14.39GB  国产电影  第1张

◎译 名 快把我哥带走 / Go Brother! / Take My Brother Away

◎年 代 2018

◎产 地 中国大陆

◎类 别 喜剧 / 奇幻

◎语 言 汉语普通话

◎上映日期 2018-08-17(中国大陆)

◎IMDb链接 https://www.imdb.com/title/tt8774260/

◎豆瓣评分 6.8/10 (367328人评价)

◎豆瓣链接 https://movie.douban.com/subject/30122633/

◎片 长 115分钟

◎导 演 郑芬芬 Fenfen Cheng (id:1276077)

◎编 剧 赵越 Yue Zhao (id:1396421)

郑芬芬 Fenfen Cheng (id:1276077)

吕旭 Xu Lü (id:1345807)

幽·灵 You Ling (id:1374489)

◎演 员 张子枫 Zifeng Zhang (id:1274254)

彭昱畅 Yuchang Peng (id:1354775)

赵今麦 Jinmai Zhao (id:1337036)

孙泽源 Zeyuan Sun (id:1390023)

周翊然 Yiran Zhou (id:1390025)

刘冠毅 Terry Liu (id:1365006)

姜宏波 Hongbo Jiang (id:1274900)

徐光宇 Guangyu Xu (id:1324384)

何焱杺 Yanxin He (id:1405139)

曹云青 Yunqing Cao (id:1413038)

陈希圣 Hsi-Sheng Chen (id:1331029)

吕旭 Xu Lü (id:1345807)

王希文 Owen Wang (id:1331668)

段奥娟 Aojuan Duan (id:1392309)

张颖 Ying Zhang (id:1425471)

胡天恩 Tianen Hu (id:1425472)

王嘉菲 (id:1462113)

廖庆松 Ching-Song Liao (id:1312523)

顾晓芸 Hsiao-Yun Ku (id:1370235)

◎简 介

拥有一个每天耍贱整蛊妹妹、毫无家庭感的哥哥是一种什么感受?油炸还是蒸锅?时秒只希望哥哥时分彻底消失!连珍贵的生日愿望都是“快把我哥带走”。不料愿望成真,哥哥变成闺蜜妙妙的哥哥,时秒同情妙妙的同时心里暗爽摆脱“大魔王”!变成独生女的时秒感觉生活无限美好,但却发现时分除了整天和好基友甄开心、万岁插科打诨、整蛊妹妹妙妙之外,还隐藏着不为人知的秘密……

◎获奖情况 (共1项)

第26届北京大学生电影节 (2019)

最佳新人奖(提名)

  1. ##### MediaInfo ######

  2. General

  3. Complete name : Go.Brother.2018.2160p.WEB-DL.DV.H265.DDP5.1-CTRLWEB.mp4

  4. Format : MPEG-4

  5. Format profile : Base Media

  6. Codec ID : isom (isom)

  7. File size : 14.4 GiB

  8. Duration : 1 h 55 min

  9. Overall bit rate mode : Variable

  10. Overall bit rate : 17.8 Mb/s

  11. Encoded date : UTC 2022-04-26 04:32:49

  12. Tagged date : UTC 2022-04-26 04:32:49

  13. Writing application : GPAC-2.0-rev0-g418db414-master


  14. Video

  15. ID : 1

  16. Format : HEVC

  17. Format/Info : High Efficiency Video Coding

  18. Format profile : Main [email protected]@High

  19. HDR format : Dolby Vision, Version 1.0, dvhe.05.06, BL+RPU

  20. Codec ID : hev1

  21. Codec ID/Info : High Efficiency Video Coding

  22. Duration : 1 h 55 min

  23. Source duration : 1 h 55 min

  24. Bit rate : 16.7 Mb/s

  25. Maximum bit rate : 48.6 Mb/s

  26. Width : 3 840 pixels

  27. Height : 1 568 pixels

  28. Display aspect ratio : 2.40:1

  29. Frame rate mode : Constant

  30. Frame rate : 24.000 FPS

  31. Color space : YUV

  32. Chroma subsampling : 4:2:0

  33. Bit depth : 10 bits

  34. Bits/(Pixel*Frame) : 0.116

  35. Stream size : 13.5 GiB (94%)

  36. Source stream size : 14.1 GiB (98%)

  37. Default : Yes

  38. Alternate group : 1

  39. Tagged date : UTC 2022-04-26 04:40:41

  40. mdhd_Duration : 6942375

  41. Codec configuration box : hvcC+dvcC


  42. Audio #1

  43. ID : 2

  44. Format : E-AC-3

  45. Format/Info : Enhanced AC-3

  46. Commercial name : Dolby Digital Plus

  47. Codec ID : ec-3

  48. Duration : 1 h 55 min

  49. Bit rate mode : Constant

  50. Bit rate : 256 kb/s

  51. Maximum bit rate : 270 kb/s

  52. Channel(s) : 6 channels

  53. Channel layout : L R C LFE Ls Rs

  54. Sampling rate : 48.0 kHz

  55. Frame rate : 31.250 FPS (1536 SPF)

  56. Compression mode : Lossy

  57. Stream size : 212 MiB (1%)

  58. Title : 普通话Mandarin DDP5.1

  59. Language : Chinese

  60. Service kind : Complete Main

  61. Default : Yes

  62. Alternate group : 1

  63. Encoded date : UTC 2022-04-26 04:39:15

  64. Tagged date : UTC 2022-04-26 04:40:41


  65. Audio #2

  66. ID : 3

  67. Format : AAC LC

  68. Format/Info : Advanced Audio Codec Low Complexity

  69. Codec ID : mp4a-40-2

  70. Duration : 1 h 55 min

  71. Bit rate mode : Variable

  72. Bit rate : 124 kb/s

  73. Maximum bit rate : 145 kb/s / 125 kb/s

  74. Channel(s) : 2 channels

  75. Channel layout : L R

  76. Sampling rate : 44.1 kHz

  77. Frame rate : 43.066 FPS (1024 SPF)

  78. Compression mode : Lossy

  79. Stream size : 103 MiB (1%)

  80. Title : 普通话Mandarin aac

  81. Language : Chinese

  82. Default : No

  83. Alternate group : 1

  84. Tagged date : UTC 2022-04-26 04:40:41




复制代码



文件下载


除非特别注明,本文『快把我哥带走[杜比视界版本][国语配音/中文字幕].Go.Brother.2018.2160p.WEB-DL.DV.H265.DDP5.1-CTRLWEB 14.39GB』来源于互联网机器人自动抓取,非本站原创。 浮游电影网不对本文拥有版权,如有侵犯,请联系邮箱:fuyouu#yandex.com[#换成@]投诉。我们会在15个工作日内删除。 但烦请转载时请标明出处:“本文转载于『浮游电影网』,原文地址:https://www.fuyouu.com/21725.html

评论吧骚年!

发表你的见解   

昵称*

E-mail*(建议输入,以便收到博主回复的提示邮件)

验证码*

您可以使用eMule或eMule Mod(Windows)、aMule(Win、Linux、Mac)等软件下载eD2k链接。。
eMule收藏集(.emulecollection)文件是您选中的所有链接的列表文件。eMule可以直接下载它们。
按住SHIFT键选择可以选中多个选择框。
可用文件名和大小选择器来选择文件。
文件名选择器帮您根据文件名称或后缀来选择文件。不分大小写。
符号使用:
和:空格( )、+
不包含:-
或:|
转义:一对英文引号("");
匹配开头:^
匹配结尾:$
例如:
选中所有名称中包含有“eMule”或“0.49c”字眼,但不包含有“exe”字眼的:emule|0.49c -exe
选中所有名称的开头是“eMule”,结尾是“0.49c”的:^emule 0.49c$
选中所有名称中带有“eMule 0.49c”的(必须是“eMule 0.49c”,中间没有别的字符,不能是“eMule fake 0.49c”),需要转义:"emule 0.49c"
大小选择器帮您根据文件大小选择文件。