当前位置: 首页 >> 欧美电影 >> 神秘海域[中文字幕].Uncharted.2022.2160p.MA.WEB-DL.x265.10bit.HDR.DTS-HD.MA.5.1-SWTYBLZ 22.20GB >> 正文

神秘海域[中文字幕].Uncharted.2022.2160p.MA.WEB-DL.x265.10bit.HDR.DTS-HD.MA.5.1-SWTYBLZ 22.20GB

2022年04月27日 15:23:40     电影发布:来源于网络     电影分类:欧美电影     评论(0)    

神秘海域[中文字幕].Uncharted.2022.2160p.MA.WEB DL.x265.10bit.HDR.DTS HD.MA.5.1 SWTYBLZ 22.20GB  欧美电影  第1张

◎译 名 神秘海域 / 秘境探险(港 / 台) / 神秘海域:德雷克船长的宝藏 / Uncharted: Drake's Fortune

◎片 名 Uncharted

◎年 代 2022

◎产 地 美国

◎类 别 动作 / 冒险

◎语 言 英语 / 西班牙语

◎上映日期 2022-03-14(中国大陆) / 2022-02-18(美国)

◎IMDb链接 https://www.imdb.com/title/tt1464335/

◎豆瓣评分 6.3/10 (39937人评价)

◎豆瓣链接 https://movie.douban.com/subject/3822687/

◎片 长 116分钟

◎导 演 鲁本·弗雷斯彻 Ruben Fleischer (id:1274906)

◎编 剧 雷夫·贾金斯 Rafe Judkins (id:1178355)

阿特·马库姆 Art Marcum (id:1306770)

马特·霍洛维 Matt Holloway (id:1286819)

◎演 员 汤姆·赫兰德 Tom Holland (id:1325351)

马克·沃尔伯格 Mark Wahlberg (id:1035674)

索菲娅·阿里 Sophia Ali (id:1391500)

塔蒂·加布里埃 Tati Gabrielle (id:1378292)

安东尼奥·班德拉斯 Antonio Banderas (id:1022582)

史蒂芬·威丁顿 Steven Waddington (id:1319284)

乔治娅·古德曼 Georgia Goodman (id:1392804)

迪尔梅德·默塔 Diarmaid Murtagh (id:1332703)

约瑟夫·巴德拉玛 Joseph Balderrama (id:1400929)

阿拉娜·博登 Alana Boden (id:1385424)

罗伯特?马瑟 Robert Maaser (id:1414390)

埃斯金迪尔·特斯法 Eskindir Tesfay (id:1395237)

曼纽尔·德·巴拉斯 Manuel de Blas (id:1001008)

帕特丽夏·梅登 Patricia Meeden (id:1445766)

诺兰·诺斯 Nolan North (id:1134542)

吉米·哈特 Jimmy Hart (id:1303375)

皮鲁·埃斯贝克 Pilou Asb?k (id:1032805)

莎拉·佩特里克 Sarah Petrick (id:1446700)

平吉·莫里 Pingi Moli (id:1468362)

蒂尔南·琼斯 Tiernan Jones (id:1468363)

鲁迪·潘科 Rudy Pankow (id:1468364)

乔纳森·法伊拉 Jonathan Failla (id:1468365)

安东尼·托马斯 Anthony Thomas (id:1468366)

彼得·锡顿-克拉克 Peter Seaton-Clark (id:1468367)

查尔斯·罗文 Charles Roven (id:1023082)

阿维·阿拉德 Avi Arad (id:1462069)

亚历克斯·加特纳 Alex Gartner (id:1423137)

阿里·阿拉德 Ari Arad (id:1463185)

鲁本·弗雷斯彻 Ruben Fleischer (id:1274906)

阿萨德·齐齐尔巴什 Asad Qizilbash (id:1463186)

丁正勋 Chung-hoon Chung (id:1076638)

玛琳·斯图尔特 Marlene Stewart (id:1051194)

贾斯汀·理查蒙德 Justin Richmond (id:1397058)

◎简 介

足智多谋的内森·德雷克(汤姆·赫兰德 饰)和经验丰富的寻宝者维克多·苏利文(马克·沃尔伯格 饰)组成搭档,追寻费迪南·麦哲伦500年前遗失的宝藏。一开始,这似乎只是个简单的寻宝工作,但很快演变成了一场惊险刺激、横跨全球的竞赛。他们必须赶在冷酷无情的蒙卡达(安东尼奥·班德拉斯 饰)之前寻得宝藏。蒙卡达坚信他和他的家族才是宝藏的正当继承人。若内森和苏利文能破译线索,解开这世界上最古老的谜团,他们便能找到价值50亿美元的宝藏,甚至还可能找到内森失踪已久的哥哥……但首先,他们必须学会通力合作。

  1. Video

  2. ID : 1

  3. Format : HEVC

  4. Format/Info : High Efficiency Video Coding

  5. Format profile : Main [email protected]@High

  6. HDR format : SMPTE ST 2086, HDR10 compatible

  7. Codec ID : V_MPEGH/ISO/HEVC

  8. Duration : 1 h 55 min

  9. Bit rate : 24.4 Mb/s

  10. Width : 3 840 pixels

  11. Height : 2 160 pixels

  12. Display aspect ratio : 16:9

  13. Frame rate mode : Constant

  14. Frame rate : 23.976 (24000/1001/53354) FPS

  15. Color space : YUV

  16. Chroma subsampling : 4:2:0 (Type 2)

  17. Bit depth : 10 bits

  18. Bits/(Pixel*Frame) : 0.123

  19. Stream size : 19.7 GiB (89%)

  20. Language : English

  21. Default : Yes

  22. Forced : No

  23. Color range : Limited

  24. Color primaries : BT.2020

  25. Transfer characteristics : PQ

  26. Matrix coefficients : BT.2020 non-constant

  27. Mastering display color primaries : Display P3

  28. Mastering display luminance : min: 0.0001 cd/m2, max: 1000 cd/m2

  29. Maximum Content Light Level : 995 cd/m2

  30. Maximum Frame-Average Light Level : 287 cd/m2


  31. Audio #1

  32. ID : 2

  33. ID in the original source medium : 4352 (0x1100)

  34. Format : DTS XLL

  35. Format/Info : Digital Theater Systems

  36. Commercial name : DTS-HD Master Audio

  37. Codec ID : A_DTS

  38. Duration : 1 h 55 min

  39. Bit rate mode : Variable

  40. Bit rate : 2 213 kb/s

  41. Channel(s) : 6 channels

  42. Channel layout : C L R Ls Rs LFE

  43. Sampling rate : 48.0 kHz

  44. Frame rate : 93.750 FPS (512 SPF)

  45. Bit depth : 16 bits

  46. Compression mode : Lossless

  47. Delay relative to video : 7 ms

  48. Stream size : 1.79 GiB (8%)

  49. Title : DTS-HD MA 5.1

  50. Language : English

  51. Default : Yes

  52. Forced : No

  53. Original source medium : Blu-ray


  54. Audio #2

  55. ID : 3

  56. Format : E-AC-3 JOC

  57. Format/Info : Enhanced AC-3 with Joint Object Coding

  58. Commercial name : Dolby Digital Plus with Dolby Atmos

  59. Codec ID : A_EAC3

  60. Duration : 1 h 55 min

  61. Bit rate mode : Constant

  62. Bit rate : 768 kb/s

  63. Channel(s) : 6 channels

  64. Channel layout : L R C LFE Ls Rs

  65. Sampling rate : 48.0 kHz

  66. Frame rate : 31.250 FPS (1536 SPF)

  67. Compression mode : Lossy

  68. Stream size : 637 MiB (3%)

  69. Title : DDP5.1 Atmos

  70. Language : English

  71. Service kind : Complete Main

  72. Default : Yes

  73. Forced : No

  74. Complexity index : 16

  75. Number of dynamic objects : 15

  76. Bed channel count : 1 channel

  77. Bed channel configuration : LFE


  78. Text #1

  79. ID : 4

  80. Format : UTF-8

  81. Codec ID : S_TEXT/UTF8

  82. Codec ID/Info : UTF-8 Plain Text

  83. Duration : 4 min 20 s

  84. Bit rate : 17 b/s

  85. Count of elements : 23

  86. Stream size : 573 Bytes (0%)

  87. Title : English [Forced]

  88. Language : English

  89. Default : No

  90. Forced : Yes


  91. Text #2

  92. ID : 5

  93. Format : UTF-8

  94. Codec ID : S_TEXT/UTF8

  95. Codec ID/Info : UTF-8 Plain Text

  96. Duration : 1 h 47 min

  97. Bit rate : 57 b/s

  98. Count of elements : 1449

  99. Stream size : 45.3 KiB (0%)

  100. Title : English

  101. Language : English

  102. Default : Yes

  103. Forced : No


  104. Text #3

  105. ID : 6

  106. Format : UTF-8

  107. Codec ID : S_TEXT/UTF8

  108. Codec ID/Info : UTF-8 Plain Text

  109. Duration : 1 h 48 min

  110. Bit rate : 63 b/s

  111. Count of elements : 1602

  112. Stream size : 50.0 KiB (0%)

  113. Title : English [SDH]

  114. Language : English

  115. Default : No

  116. Forced : No


  117. Text #4

  118. ID : 7

  119. Format : UTF-8

  120. Codec ID : S_TEXT/UTF8

  121. Codec ID/Info : UTF-8 Plain Text

  122. Duration : 1 h 53 min

  123. Bit rate : 43 b/s

  124. Count of elements : 1354

  125. Stream size : 36.3 KiB (0%)

  126. Title : Simplified

  127. Language : Chinese

  128. Default : No

  129. Forced : No


  130. Text #5

  131. ID : 8

  132. Format : UTF-8

  133. Codec ID : S_TEXT/UTF8

  134. Codec ID/Info : UTF-8 Plain Text

  135. Duration : 1 h 53 min

  136. Bit rate : 37 b/s

  137. Count of elements : 1354

  138. Stream size : 31.3 KiB (0%)

  139. Title : Traditional

  140. Language : Chinese

  141. Default : No

  142. Forced : No


  143. Text #6

  144. ID : 9

  145. Format : UTF-8

  146. Codec ID : S_TEXT/UTF8

  147. Codec ID/Info : UTF-8 Plain Text

  148. Duration : 1 h 53 min

  149. Bit rate : 40 b/s

  150. Count of elements : 1012

  151. Stream size : 34.0 KiB (0%)

  152. Title : Dutch

  153. Language : Dutch

  154. Default : No

  155. Forced : No


  156. Text #7

  157. ID : 10

  158. Format : UTF-8

  159. Codec ID : S_TEXT/UTF8

  160. Codec ID/Info : UTF-8 Plain Text

  161. Duration : 1 h 53 min

  162. Bit rate : 44 b/s

  163. Count of elements : 1378

  164. Stream size : 37.4 KiB (0%)

  165. Title : Finnish

  166. Language : Finnish

  167. Default : No

  168. Forced : No


  169. Text #8

  170. ID : 11

  171. Format : UTF-8

  172. Codec ID : S_TEXT/UTF8

  173. Codec ID/Info : UTF-8 Plain Text

  174. Duration : 1 h 53 min

  175. Bit rate : 44 b/s

  176. Count of elements : 1307

  177. Stream size : 37.3 KiB (0%)

  178. Title : French

  179. Language : French

  180. Default : No

  181. Forced : No


  182. Text #9

  183. ID : 12

  184. Format : UTF-8

  185. Codec ID : S_TEXT/UTF8

  186. Codec ID/Info : UTF-8 Plain Text

  187. Duration : 1 h 53 min

  188. Bit rate : 43 b/s

  189. Count of elements : 1328

  190. Stream size : 36.4 KiB (0%)

  191. Title : Indonesian

  192. Language : Indonesian

  193. Default : No

  194. Forced : No


  195. Text #10

  196. ID : 13

  197. Format : UTF-8

  198. Codec ID : S_TEXT/UTF8

  199. Codec ID/Info : UTF-8 Plain Text

  200. Duration : 1 h 53 min

  201. Bit rate : 43 b/s

  202. Count of elements : 1228

  203. Stream size : 36.4 KiB (0%)

  204. Title : Italian

  205. Language : Italian

  206. Default : No

  207. Forced : No


  208. Text #11

  209. ID : 14

  210. Format : UTF-8

  211. Codec ID : S_TEXT/UTF8

  212. Codec ID/Info : UTF-8 Plain Text

  213. Duration : 1 h 53 min

  214. Bit rate : 47 b/s

  215. Count of elements : 1362

  216. Stream size : 39.5 KiB (0%)

  217. Title : Korean

  218. Language : Korean

  219. Default : No

  220. Forced : No


  221. Text #12

  222. ID : 15

  223. Format : UTF-8

  224. Codec ID : S_TEXT/UTF8

  225. Codec ID/Info : UTF-8 Plain Text

  226. Duration : 1 h 53 min

  227. Bit rate : 39 b/s

  228. Count of elements : 1210

  229. Stream size : 33.1 KiB (0%)

  230. Title : Norwegian

  231. Language : Norwegian

  232. Default : No

  233. Forced : No


  234. Text #13

  235. ID : 16

  236. Format : UTF-8

  237. Codec ID : S_TEXT/UTF8

  238. Codec ID/Info : UTF-8 Plain Text

  239. Duration : 1 h 53 min

  240. Bit rate : 47 b/s

  241. Count of elements : 1321

  242. Stream size : 39.9 KiB (0%)

  243. Title : Portuguese Brazilian

  244. Language : Portuguese

  245. Default : No

  246. Forced : No


  247. Text #14

  248. ID : 17

  249. Format : UTF-8

  250. Codec ID : S_TEXT/UTF8

  251. Codec ID/Info : UTF-8 Plain Text

  252. Duration : 1 h 53 min

  253. Bit rate : 46 b/s

  254. Count of elements : 1299

  255. Stream size : 38.9 KiB (0%)

  256. Title : Spanish

  257. Language : Spanish

  258. Default : No

  259. Forced : No


  260. Text #15

  261. ID : 18

  262. Format : UTF-8

  263. Codec ID : S_TEXT/UTF8

  264. Codec ID/Info : UTF-8 Plain Text

  265. Duration : 1 h 53 min

  266. Bit rate : 44 b/s

  267. Count of elements : 1293

  268. Stream size : 37.4 KiB (0%)

  269. Title : European Spanish

  270. Language : Spanish

  271. Default : No

  272. Forced : No


  273. Text #16

  274. ID : 19

  275. Format : UTF-8

  276. Codec ID : S_TEXT/UTF8

  277. Codec ID/Info : UTF-8 Plain Text

  278. Duration : 1 h 53 min

  279. Bit rate : 42 b/s

  280. Count of elements : 1040

  281. Stream size : 35.8 KiB (0%)

  282. Title : Swedish

  283. Language : Swedish

  284. Default : No

  285. Forced : No


  286. Text #17

  287. ID : 20

  288. Format : UTF-8

  289. Codec ID : S_TEXT/UTF8

  290. Codec ID/Info : UTF-8 Plain Text

  291. Duration : 1 h 53 min

  292. Bit rate : 37 b/s

  293. Count of elements : 1303

  294. Stream size : 31.3 KiB (0%)

  295. Title : Japanese

  296. Language : Japanese

  297. Default : No

  298. Forced : No


  299. Text #18

  300. ID : 21

  301. Format : UTF-8

  302. Codec ID : S_TEXT/UTF8

  303. Codec ID/Info : UTF-8 Plain Text

  304. Duration : 1 h 53 min

  305. Bit rate : 114 b/s

  306. Count of elements : 1358

  307. Stream size : 95.5 KiB (0%)

  308. Title : Thai

  309. Language : Thai

  310. Default : No

  311. Forced : No


  312. Text #19

  313. ID : 22

  314. Format : UTF-8

  315. Codec ID : S_TEXT/UTF8

  316. Codec ID/Info : UTF-8 Plain Text

  317. Duration : 1 h 47 min

  318. Bit rate : 54 b/s

  319. Count of elements : 1332

  320. Stream size : 42.7 KiB (0%)

  321. Title : Turkish

  322. Language : Turkish

  323. Default : No

  324. Forced : No


  325. Text #20

  326. ID : 23

  327. Format : PGS

  328. Muxing mode : zlib

  329. Codec ID : S_HDMV/PGS

  330. Codec ID/Info : Picture based subtitle format used on BDs/HD-DVDs

  331. Duration : 1 h 47 min

  332. Bit rate : 33.4 kb/s

  333. Count of elements : 2670

  334. Stream size : 25.7 MiB (0%)

  335. Language : English

  336. Default : No

  337. Forced : No


  338. Text #21

  339. ID : 24

  340. Format : PGS

  341. Muxing mode : zlib

  342. Codec ID : S_HDMV/PGS

  343. Codec ID/Info : Picture based subtitle format used on BDs/HD-DVDs

  344. Duration : 1 h 53 min

  345. Bit rate : 26.5 kb/s

  346. Count of elements : 2614

  347. Stream size : 21.6 MiB (0%)

  348. Language : French

  349. Default : No

  350. Forced : No


  351. Text #22

  352. ID : 25

  353. Format : PGS

  354. Muxing mode : zlib

  355. Codec ID : S_HDMV/PGS

  356. Codec ID/Info : Picture based subtitle format used on BDs/HD-DVDs

  357. Duration : 1 h 53 min

  358. Bit rate : 27.4 kb/s

  359. Count of elements : 2586

  360. Stream size : 22.3 MiB (0%)

  361. Language : Spanish

  362. Default : No

  363. Forced : No


  364. Menu

  365. 00:00:00.000 : en:Chapter 01

  366. 00:08:16.496 : en:Chapter 02

  367. 00:12:23.284 : en:Chapter 03

  368. 00:18:56.885 : en:Chapter 04

  369. 00:24:30.218 : en:Chapter 05

  370. 00:31:35.101 : en:Chapter 06

  371. 00:36:14.338 : en:Chapter 07

  372. 00:41:26.984 : en:Chapter 08

  373. 00:48:05.090 : en:Chapter 09

  374. 00:53:18.403 : en:Chapter 10

  375. 00:59:13.258 : en:Chapter 11

  376. 01:05:53.199 : en:Chapter 12

  377. 01:12:02.943 : en:Chapter 13

  378. 01:17:32.898 : en:Chapter 14

  379. 01:25:00.220 : en:Chapter 15

  380. 01:34:41.842 : en:Chapter 16

复制代码

神秘海域[中文字幕].Uncharted.2022.2160p.MA.WEB DL.x265.10bit.HDR.DTS HD.MA.5.1 SWTYBLZ 22.20GB  欧美电影  第2张 神秘海域[中文字幕].Uncharted.2022.2160p.MA.WEB DL.x265.10bit.HDR.DTS HD.MA.5.1 SWTYBLZ 22.20GB  欧美电影  第3张 神秘海域[中文字幕].Uncharted.2022.2160p.MA.WEB DL.x265.10bit.HDR.DTS HD.MA.5.1 SWTYBLZ 22.20GB  欧美电影  第4张



文件下载


除非特别注明,本文『神秘海域[中文字幕].Uncharted.2022.2160p.MA.WEB-DL.x265.10bit.HDR.DTS-HD.MA.5.1-SWTYBLZ 22.20GB』来源于互联网机器人自动抓取,非本站原创。 浮游电影网不对本文拥有版权,如有侵犯,请联系邮箱:fuyouu#yandex.com[#换成@]投诉。我们会在15个工作日内删除。 但烦请转载时请标明出处:“本文转载于『浮游电影网』,原文地址:https://www.fuyouu.com/21724.html

评论吧骚年!

发表你的见解   

昵称*

E-mail*(建议输入,以便收到博主回复的提示邮件)

验证码*

您可以使用eMule或eMule Mod(Windows)、aMule(Win、Linux、Mac)等软件下载eD2k链接。。
eMule收藏集(.emulecollection)文件是您选中的所有链接的列表文件。eMule可以直接下载它们。
按住SHIFT键选择可以选中多个选择框。
可用文件名和大小选择器来选择文件。
文件名选择器帮您根据文件名称或后缀来选择文件。不分大小写。
符号使用:
和:空格( )、+
不包含:-
或:|
转义:一对英文引号("");
匹配开头:^
匹配结尾:$
例如:
选中所有名称中包含有“eMule”或“0.49c”字眼,但不包含有“exe”字眼的:emule|0.49c -exe
选中所有名称的开头是“eMule”,结尾是“0.49c”的:^emule 0.49c$
选中所有名称中带有“eMule 0.49c”的(必须是“eMule 0.49c”,中间没有别的字符,不能是“eMule fake 0.49c”),需要转义:"emule 0.49c"
大小选择器帮您根据文件大小选择文件。