当前位置: 首页 >> 国产电影 >> 新娘大作战[国语配音/中文字幕].Bride.Wars.2015.2160p.WEB-DL.H265.AAC-CTRLWEB 2.39GB >> 正文

新娘大作战[国语配音/中文字幕].Bride.Wars.2015.2160p.WEB-DL.H265.AAC-CTRLWEB 2.39GB

2022年04月26日 09:43:18     电影发布:来源于网络     电影分类:国产电影     评论(0)    

新娘大作战[国语配音/中文字幕].Bride.Wars.2015.2160p.WEB DL.H265.AAC CTRLWEB 2.39GB  国产电影  第1张

◎译 名 新娘大作战 / 结婚大作战中国版 / Bride Wars

◎年 代 2015

◎产 地 中国大陆 / 中国香港

◎类 别 喜剧 / 爱情

◎语 言 汉语普通话 / 上海话

◎上映日期 2015-08-20(中国大陆)

◎IMDb链接 https://www.imdb.com/title/tt3833460/

◎豆瓣评分 4.2/10 (84320人评价)

◎豆瓣链接 https://movie.douban.com/subject/25849475/

◎片 长 90分钟

◎导 演 陈国辉 Tony Chan (id:1280442)

◎编 剧 陈国辉 Tony Chan (id:1280442)

顾伟 Wei Gu (id:1345024)

徐伊亮 Yiliang Xu (id:1315467)

琼·黛安·拉斐尔 June Diane Raphael (id:1323225)

凯西·威尔逊 Casey Wilson (id:1216652)

格雷格·德保罗 Greg DePaul (id:1348838)

◎演 员 杨颖 Angelababy (id:1033011)

倪妮 Ni Ni (id:1315861)

陈晓 Xiao Chen (id:1325412)

朱亚文 Yawen Zhu (id:1312699)

何炅 Jiong He (id:1313023)

刘金山 Jinshan Liu (id:1274288)

王一楠 Yinan Wang (id:1314245)

奚望 Wang Xi (id:1328339)

井柏然 Boran Jing (id:1274628)

杜海涛 Haitao Du (id:1313024)

黄晓明 Xiaoming Huang (id:1041404)

冯绍峰 Shaofeng Feng (id:1275721)

颜景瑶 Jingyao Yan (id:1364583)

吴任远 Renyuan Wu (id:1364060)

郭亚菲 Yafei Guo (id:1355550)

徐玉兰 Yulan Xu (id:1327165)

王嘉卉 (id:1430163)

郝泽嘉 Zejia Hao (id:1318004)

阎虹宇 Hongyu Yan (id:1430240)

韩淼 Miao Han (id:1364610)

李全有 Quanyou Li (id:1416705)

徐嘉悦 Jiayue Xu (id:1416373)

林明杰 Eric Lin (id:1374637)

陈果 Fruit Chan (id:1000726)

李栋全 Wenders Li (id:1275162)

郭亚菲 Yafei Guo (id:1355550)

◎简 介

马丽(倪妮 饰)和何静(杨颖 饰)是从小玩到大的闺中密友,彼此之间感情十分要好。曾经,在一间豪华的酒店之中,两个姑娘目睹了一场浪漫的婚礼,她们就此立下誓言,等到结婚的那一天,一定要重回此地举行仪式。

时光荏苒,马丽和何静都找到了如意郎君,可两人的男友似乎对结婚这件事情并不那么热衷。经过种种波折,两对情侣终于修成了正果准备步入婚姻的殿堂,两个女孩的梦想眼看就要完成,在这个节骨眼上,她们得知在未来三年内,酒店仅剩下一个档期,这也就意味着,若想要按时完婚,那么她们其中一人的梦想注定将要破灭。危机之下,马丽和何静反目成仇,开始了一场撕逼大战。

◎获奖情况 (共1项)

第6届豆瓣电影鑫像奖 (2016)

豆渣单元 最渣女演员(华语)(提名)

└──杨颖 (id:1033011)

  1. ##### MediaInfo ######

  2. General

  3. Complete name : Bride.Wars.2015.2160p.WEB-DL.H265.AAC-CTRLWEB.mp4

  4. Format : MPEG-4

  5. Format profile : Base Media

  6. Codec ID : isom (isom/iso2/mp41)

  7. File size : 2.39 GiB

  8. Duration : 1 h 29 min

  9. Overall bit rate mode : Variable

  10. Overall bit rate : 3 838 kb/s

  11. Recorded date : 2022-04-24T17:25:20.8216540+08:00

  12. Writing application : Lavf59.16.100


  13. Video

  14. ID : 1

  15. Format : HEVC

  16. Format/Info : High Efficiency Video Coding

  17. Format profile : [email protected]@Main

  18. Codec ID : hev1

  19. Codec ID/Info : High Efficiency Video Coding

  20. Duration : 1 h 29 min

  21. Bit rate : 3 707 kb/s

  22. Width : 3 840 pixels

  23. Height : 1 632 pixels

  24. Display aspect ratio : 2.35:1

  25. Frame rate mode : Constant

  26. Frame rate : 24.000 FPS

  27. Color space : YUV

  28. Chroma subsampling : 4:2:0

  29. Bit depth : 8 bits

  30. Bits/(Pixel*Frame) : 0.025

  31. Stream size : 2.31 GiB (97%)

  32. Codec configuration box : hvcC


  33. Audio

  34. ID : 2

  35. Format : AAC LC

  36. Format/Info : Advanced Audio Codec Low Complexity

  37. Codec ID : mp4a-40-2

  38. Duration : 1 h 29 min

  39. Bit rate mode : Variable

  40. Bit rate : 125 kb/s

  41. Maximum bit rate : 128 kb/s / 128 kb/s

  42. Channel(s) : 2 channels

  43. Channel layout : L R

  44. Sampling rate : 44.1 kHz

  45. Frame rate : 43.066 FPS (1024 SPF)

  46. Compression mode : Lossy

  47. Stream size : 79.7 MiB (3%)

  48. Default : Yes

  49. Alternate group : 1




复制代码



文件下载


除非特别注明,本文『新娘大作战[国语配音/中文字幕].Bride.Wars.2015.2160p.WEB-DL.H265.AAC-CTRLWEB 2.39GB』来源于互联网机器人自动抓取,非本站原创。 浮游电影网不对本文拥有版权,如有侵犯,请联系邮箱:fuyouu#yandex.com[#换成@]投诉。我们会在15个工作日内删除。 但烦请转载时请标明出处:“本文转载于『浮游电影网』,原文地址:https://www.fuyouu.com/21709.html

评论吧骚年!

发表你的见解   

昵称*

E-mail*(建议输入,以便收到博主回复的提示邮件)

验证码*

您可以使用eMule或eMule Mod(Windows)、aMule(Win、Linux、Mac)等软件下载eD2k链接。。
eMule收藏集(.emulecollection)文件是您选中的所有链接的列表文件。eMule可以直接下载它们。
按住SHIFT键选择可以选中多个选择框。
可用文件名和大小选择器来选择文件。
文件名选择器帮您根据文件名称或后缀来选择文件。不分大小写。
符号使用:
和:空格( )、+
不包含:-
或:|
转义:一对英文引号("");
匹配开头:^
匹配结尾:$
例如:
选中所有名称中包含有“eMule”或“0.49c”字眼,但不包含有“exe”字眼的:emule|0.49c -exe
选中所有名称的开头是“eMule”,结尾是“0.49c”的:^emule 0.49c$
选中所有名称中带有“eMule 0.49c”的(必须是“eMule 0.49c”,中间没有别的字符,不能是“eMule fake 0.49c”),需要转义:"emule 0.49c"
大小选择器帮您根据文件大小选择文件。