当前位置: 首页 >> 国产电影 >> 1921[国语音轨/简体字幕].1921.2021.2160p.WEB-DL.H265.HDR.DTS-HDBWEB 5.51GB >> 正文

1921[国语音轨/简体字幕].1921.2021.2160p.WEB-DL.H265.HDR.DTS-HDBWEB 5.51GB

2022年04月26日 09:42:05     电影发布:来源于网络     电影分类:国产电影     评论(0)    

1921[国语音轨/简体字幕].1921.2021.2160p.WEB DL.H265.HDR.DTS HDBWEB 5.51GB  国产电影  第1张

◎译 名 1921 / 一九二一

◎年 代 2021

◎产 地 中国大陆

◎类 别 剧情 / 历史

◎语 言 汉语普通话

◎上映日期 2021-07-01(中国大陆) / 2021-06-11(上海国际电影节)

◎IMDb链接 https://www.imdb.com/title/tt12624504/

◎豆瓣评分 6.7/10 (153768人评价)

◎豆瓣链接 https://movie.douban.com/subject/35125443/

◎片 长 137分钟

◎导 演 黄建新 Jianxin Huang (id:1019896)

郑大圣 Dasheng Zheng (id:1314208)

◎编 剧 余曦 Xi Yu (id:1327440)

黄建新 Jianxin Huang (id:1019896)

赵宁宇 Ningyu Zhao (id:1275776)

◎演 员 黄轩 Xuan Huang (id:1276105)

倪妮 Ni Ni (id:1315861)

王仁君 Renjun Wang (id:1319834)

刘昊然 Haoran Liu (id:1336305)

袁文康 Wenkang Yuan (id:1274820)

祖峰 Feng Zu (id:1313650)

窦骁 Shawn Dou (id:1274225)

张颂文 Songwen Zhang (id:1314329)

刘家祎 Jiayi Liu (id:1397524)

王俊凯 Karry Wang (id:1339594)

王源 Roy Wang (id:1339808)

欧豪 Hao Ou (id:1337644)

韩东君 Elvis Han (id:1348542)

张超 Juck Zhang (id:1325810)

张云龙 Yunlong Zhang (id:1326059)

胡先煦 Xianxu Hu (id:1329632)

陈坤 Kun Chen (id:1053618)

李晨 Chen Li (id:1274252)

倪大红 Dahong Ni (id:1274306)

田雨 Yu Tian (id:1316331)

谢孟伟 Mengwei Xie (id:1314488)

冯绍峰 Shaofeng Feng (id:1275721)

刘诗诗 Shishi Liu (id:1274533)

宋佳 Jia Song (id:1042341)

宋轶 Yi Song (id:1319273)

殷桃 Tao Yin (id:1275049)

安泽豪 Zehao An (id:1318040)

袁泉 Quan Yuan (id:1010504)

周也 Ye Zhou (id:1412762)

欧阳娜娜 Nana Ouyang (id:1336314)

魏大勋 Daxun Wei (id:1314064)

张雪迎 Xueying Zhang (id:1326897)

萱萱 Xuanxuan (id:1456867)

埃里克·迪恩 Eric Dane (id:1041105)

乔什·怀特豪斯 Josh Whitehouse (id:1371387)

奥田瑛二 Eiji Okuda (id:1033105)

白石隼也 Shun'ya Shiraishi (id:1321042)

池松壮亮 Sosuke Ikematsu (id:1009895)

朱一龙 Yilong Zhu (id:1318883)

白宇 Yu Bai (id:1337887)

倪寒尽 Jinhan Ni (id:1401621)

许凯 Kai Xu (id:1383033)

张若昀 Ruoyun Zhang (id:1313867)

张建亚 Jianya Zhang (id:1276057)

赵露思 Lusi Zhao (id:1385770)

钟楚曦 Elane Zhong (id:1357009)

雷佳音 Jiayin Lei (id:1312940)

郭子凡 Zifan Guo (id:1357225)

欧阳卫熹 Weixi Ouyang (id:1442087)

陈美伊 Meiyi Chen (id:1442086)

胡连馨 Lianxin Hu (id:1422098)

陈仟钰 Qianyu Chen (id:1442088)

夏梦 Meng Xia (id:1425529)

陈雨锶 Yusi Chen (id:1375964)

俞灏明 Haoming Yu (id:1317315)

王森 Sen Wang (id:1314632)

谷嘉诚 Jason Gu (id:1356456)

张宥浩 Youhao Zhang (id:1357957)

赵弈钦 Yiqin Zhao (id:1363938)

刘畅 Chang Liu (id:1344500)

马天宇 Ray Ma (id:1312820)

史彭元 Pengyuan Shi (id:1342395)

陈龙 Long Chen (id:1314478)

韩昊霖 Haolin Han (id:1396506)

彭楚粤 Chuyue Peng (id:1360384)

王锵 Qiang Wang (id:1381513)

刘冬沁 Dongqin Liu (id:1354373)

叶璇 Michelle Ye (id:1005537)

佟瑞欣 Ruixin Tong (id:1276103)

于慧 Hui Yu (id:1316668)

曹骏 Jun Cao (id:1275884)

陶海 Hai Tao (id:1316784)

叶祖新 Zuxin Ye (id:1316291)

范世錡 Shiqi Fan (id:1340464)

于湉 Tan Yu (id:1340458)

白宇帆 Yufan Bai (id:1405549)

张晓晨 Xiaochen Zhang (id:1315048)

李子峰 Zifeng Li (id:1326498)

方逸伦 Yilun Fang (id:1359360)

刘佩琦 Peiqi Liu (id:1274585)

张海宇 Haiyu Zhang (id:1364842)

周游 You Zhou (id:1353521)

生港帅 Gangshuai Sheng (id:1430147)

叶筱玮 Xiaowei Ye (id:1371589)

吴希泽 Caesar Wu (id:1383959)

刘帅 Lucas Liu (id:1358088)

李殿尊 Dianzun Li (id:1420569)

王天辰 Tianchen Wang (id:1366846)

此沙 J_Black (id:1428375)

达伦·格罗夫纳 Darren Grosvenor (id:1351374)

托马斯·菲凯 Thomas Fiquet (id:1430186)

刘泊潇 Boxiao Liu (id:1318071)

小爱 Hao Liu (id:1339968)

张洪睿 Hongrui Zhang (id:1318622)

耿乐 Le Geng (id:1274576)

叶火 Huo Ye (id:1423966)

潘斌龙 Binlong Pan (id:1316365)

李感 Gan Li (id:1352755)

罗泽楷 Zekai Luo (id:1456866)

徐佳 Jia Xu (id:1313651)

高容方 Rongfang Gao (id:1422650)

刘恩佳 Enjia Liu (id:1355538)

徐晓璐 Xiaolu Xu (id:1355406)

刘哲尔 Zheer Liu (id:1386837)

佟丽娅 Liya Tong (id:1275756)

佟大为 Dawei Tong (id:1009179)

薛佳凝 Jianing Xue (id:1312914)

张婧仪 Jingyi Zhang (id:1407562)

包贝尔 Bei'er Bao (id:1315866)

林芷伊 Lin Zhi Yi (id:1451788)

C.T. / Gao Mingyu Evans (id:1465163)

程武 Wu Cheng (id:1406349)

王健儿 Jian'er Wang (id:1440168)

任宁 Ning Ren (id:1357630)

黄建新 Jianxin Huang (id:1019896)

郑志昊 Zhihao Zheng (id:1397531)

曹华益 Huayi Cao (id:1379649)

傅若清 Ruoqing Fu (id:1417588)

焦宏奋 Hongfen Jiao (id:1412277)

林建岳 Peter Lam (id:1340495)

赵海城 Haicheng Zhao (id:1392082)

贾淕 Lu Jia (id:1447542)

许建海 Jianhai Xu (id:1384186)

徐春萍 Chunping Xu (id:1448941)

王隽 Jun Wang (id:1448949)

曾海东 Haidong Zeng (id:1453515)

梅林茂 Shigeru Umebayashi (id:1005471)

黄逸歆 Yixin Huang (id:1460965)

刘晔 Ye Liu (id:1374439)

曹郁 Yu Cao (id:1304904)

孙志功 Zhigong Sun (id:1409415)

常城 Cheng Chang (id:1466671)

于柏杨 Boyang Yu (id:1352368)

吴嘉葵 Jiakui Wu (id:1440170)

陈同勋 Tongxun Chen (id:1331176)

姬磊 (id:1440169)

范永忠 (id:1462338)

宋慧雯 Huiwen Song (id:1443095)

杨菁奕 (id:1440171)

姜超 Chao Jiang (id:1417970)

王程 Cheng Wang (id:1440172)

◎简 介

影片以时代“横截面”视角切入,聚焦1921年前后的故事,全景式重现了百年前波澜壮阔、开天辟地的历史时刻——来自五湖四海平均年龄仅28岁的热血青年们,突破国际各股复杂势力的监控和追踪,聚集上海召开中国共产党第一次代表大会,见证中国共产党的成立。

◎获奖情况 (共7项)

第34届中国电影金鸡奖 (2021)

最佳导演(提名)

最佳编剧

最佳女配角(提名)

└──周也 (id:1412762)

最佳摄影(提名)

└──曹郁 (id:1304904)

最佳剪辑(提名)

最佳录音(提名)

第16届中国长春电影节 (2021)

金鹿奖 最佳编剧

  1. ##### MediaInfo ######

  2. General

  3. Unique ID : 75313863372105734868965204614734959985 (0x38A8EC26F77174CC661B26837BA85571)

  4. Complete name : 1921.2021.2160p.WEB-DL.H265.HDR.DTS-HDBWEB.mkv

  5. Format : Matroska

  6. Format version : Version 4

  7. File size : 5.51 GiB

  8. Duration : 2 h 16 min

  9. Overall bit rate : 5 782 kb/s

  10. Encoded date : UTC 2022-04-24 09:44:41

  11. Writing application : mkvmerge v66.0.0 ('Josie') 64-bit

  12. Writing library : libebml v1.4.2 + libmatroska v1.6.4


  13. Video

  14. ID : 1

  15. Format : HEVC

  16. Format/Info : High Efficiency Video Coding

  17. Format profile : Main [email protected]@Main

  18. HDR format : SMPTE ST 2086, HDR10 compatible

  19. Codec ID : V_MPEGH/ISO/HEVC

  20. Duration : 2 h 16 min

  21. Bit rate : 5 011 kb/s

  22. Width : 3 840 pixels

  23. Height : 2 160 pixels

  24. Display aspect ratio : 16:9

  25. Frame rate mode : Constant

  26. Frame rate : 24.000 FPS

  27. Color space : YUV

  28. Chroma subsampling : 4:2:0

  29. Bit depth : 10 bits

  30. Bits/(Pixel*Frame) : 0.025

  31. Stream size : 4.77 GiB (87%)

  32. Default : Yes

  33. Forced : No

  34. Color range : Limited

  35. Color primaries : BT.2020

  36. Transfer characteristics : PQ

  37. Matrix coefficients : BT.2020 non-constant

  38. Mastering display color primaries : Display P3

  39. Mastering display luminance : min: 0.0050 cd/m2, max: 4000 cd/m2

  40. Maximum Content Light Level : 789 cd/m2

  41. Maximum Frame-Average Light Level : 725 cd/m2


  42. Audio

  43. ID : 2

  44. Format : DTS

  45. Format/Info : Digital Theater Systems

  46. Codec ID : A_DTS

  47. Duration : 2 h 16 min

  48. Bit rate mode : Constant

  49. Bit rate : 768 kb/s

  50. Channel(s) : 6 channels

  51. Channel layout : C L R Ls Rs LFE

  52. Sampling rate : 48.0 kHz

  53. Frame rate : 93.750 FPS (512 SPF)

  54. Bit depth : 16 bits

  55. Compression mode : Lossy

  56. Stream size : 749 MiB (13%)

  57. Title : 国语DTS

  58. Language : Chinese

  59. Default : Yes

  60. Forced : No


  61. Text

  62. ID : 3

  63. Format : UTF-8

  64. Codec ID : S_TEXT/UTF8

  65. Codec ID/Info : UTF-8 Plain Text

  66. Duration : 2 h 2 min

  67. Bit rate : 90 b/s

  68. Count of elements : 1829

  69. Stream size : 81.7 KiB (0%)

  70. Title : 中英双语

  71. Language : Chinese

  72. Default : Yes

  73. Forced : No




复制代码



文件下载


除非特别注明,本文『1921[国语音轨/简体字幕].1921.2021.2160p.WEB-DL.H265.HDR.DTS-HDBWEB 5.51GB』来源于互联网机器人自动抓取,非本站原创。 浮游电影网不对本文拥有版权,如有侵犯,请联系邮箱:fuyouu#yandex.com[#换成@]投诉。我们会在15个工作日内删除。 但烦请转载时请标明出处:“本文转载于『浮游电影网』,原文地址:https://www.fuyouu.com/21708.html

评论吧骚年!

发表你的见解   

昵称*

E-mail*(建议输入,以便收到博主回复的提示邮件)

验证码*

您可以使用eMule或eMule Mod(Windows)、aMule(Win、Linux、Mac)等软件下载eD2k链接。。
eMule收藏集(.emulecollection)文件是您选中的所有链接的列表文件。eMule可以直接下载它们。
按住SHIFT键选择可以选中多个选择框。
可用文件名和大小选择器来选择文件。
文件名选择器帮您根据文件名称或后缀来选择文件。不分大小写。
符号使用:
和:空格( )、+
不包含:-
或:|
转义:一对英文引号("");
匹配开头:^
匹配结尾:$
例如:
选中所有名称中包含有“eMule”或“0.49c”字眼,但不包含有“exe”字眼的:emule|0.49c -exe
选中所有名称的开头是“eMule”,结尾是“0.49c”的:^emule 0.49c$
选中所有名称中带有“eMule 0.49c”的(必须是“eMule 0.49c”,中间没有别的字符,不能是“eMule fake 0.49c”),需要转义:"emule 0.49c"
大小选择器帮您根据文件大小选择文件。