当前位置: 首页 >> 欧美电影 >> 惊声尖叫[共5部合集][简体字幕].Scream.1-5.1996-2022.BluRay.1080p.DTS-HD.MA.5.1.x265.10bit-ALT 49.60GB >> 正文

惊声尖叫[共5部合集][简体字幕].Scream.1-5.1996-2022.BluRay.1080p.DTS-HD.MA.5.1.x265.10bit-ALT 49.60GB

2022年04月24日 23:07:03     电影发布:来源于网络     电影分类:欧美电影     评论(0)    

惊声尖叫[共5部合集][简体字幕].Scream.1 5.1996 2022.BluRay.1080p.DTS HD.MA.5.1.x265.10bit ALT 49.60GB  欧美电影  第1张

◎译 名 惊声尖叫 / 夺命狂呼(港) / 尖叫

◎片 名 Scream

◎年 代 1996

◎产 地 美国

◎类 别 惊悚 / 恐怖

◎语 言 英语

◎上映日期 1996-12-20

◎IMDb链接 https://www.imdb.com/title/tt0117571/

◎豆瓣评分 7.1/10 (47169人评价)

◎豆瓣链接 https://movie.douban.com/subject/1301630/

◎片 长 111 分钟

◎导 演 韦斯·克雷文 Wes Craven (id:1025221)

◎编 剧 凯文·威廉姆森 Kevin Williamson (id:1032153)

◎演 员 内芙·坎贝尔 Neve Campbell (id:1027828)

斯基特·乌尔里奇 Skeet Ulrich (id:1004631)

柯特妮·考克斯 Courteney Cox (id:1040995)

大卫·阿奎特 David Arquette (id:1049510)

德鲁·巴里摩尔 Drew Barrymore (id:1054525)

马修·里沃德 Matthew Lillard (id:1004615)

Joseph Whipp Joseph Whipp (id:1166161)

Lisa Beach Lisa Beach (id:1278137)

丽莎·坎宁 Lisa Canning (id:1071723)

Troy Bishop Troy Bishop (id:1055721)

琳达·布莱尔 Linda Blair (id:1007024)

杰米·肯尼迪 Jamie Kennedy (id:1019042)

弗兰西斯·李·麦克凯恩 Frances Lee McCain (id:1022893)

韦斯·克雷文 Wes Craven (id:1025221)

列维·施瑞博尔 Liev Schreiber (id:1027151)

亨利·温克勒 Henry Winkler (id:1041140)

罗丝·麦高恩 Rose McGowan (id:1049504)

W·厄尔·布朗 W. Earl Brown (id:1049772)

哈维·韦恩斯坦 Harvey Weinstein (id:1054304)

Cathy Konrad Cathy Konrad (id:1288878)

卡里·伍兹 Cary Woods (id:1301251)

鲍伯·韦恩斯坦 Bob Weinstein (id:1300654)

玛丽安·马达莱娜 Marianne Maddalena (id:1290689)

Julee Cruise Julee Cruise (id:1077038)

马可·贝尔崔米 Marco Beltrami (id:1027998)

Mark Irwin Mark Irwin (id:1025459)

帕特里克·卢西尔 Patrick Lussier (id:1315802)

Lisa Beach Lisa Beach (id:1278137)

芭芭拉·奥尔维拉 Barbara Olvera (id:1293578)

罗伯特库兹曼 Robert Kurtzman (id:1036962)

Carol Schwartz Carol Schwartz (id:1297008)

霍华德·伯杰 Howard Berger (id:1278442)

格里高利·尼克特洛 Gregory Nicotero (id:1128804)

◎简 介

锡德尼?普雷斯科特(内芙?坎贝尔饰)的母亲去世一周年,这个本该平静的加州小镇变成了一片血海!两名学生被残忍地杀害,凶手是一位带着面具的恐怖片爱好者。警方将锡德尼的男友比尔?卢米斯(斯基特?乌尔里奇饰)定为嫌疑犯,并予以逮捕。但这时又有命案发生!神出鬼没的面具凶手仿佛死神般带走一个又一个生命,但凶手的真面目却无人知晓。夜幕降临,凶手将锡德尼身边的人一个个杀害,而被害人只能在被害前惊声尖叫。谁能够从凶手的刀下躲过,谁能揭开凶手的面具呢?

  1. 合集文件列表:

  2. 1.Scream.1.1996.BluRay.1080p.DTS-HD.MA.5.1.x265.10bit-ALT.mkv 10.75GB

  3. 2.Scream.2.1997.BluRay.1080p.DTS-HD.MA.5.1.x265.10bit-ALT.mkv 11.79GB

  4. 3.Scream.3.2000.BluRay.1080p.DTS-HD.MA.5.1.x265.10bit-ALT.mkv 9.22GB

  5. 4.Scream.4.2011.BluRay.1080p.DTS-HD.MA.5.1.x265.10bit-ALT.mkv 7.92GB

  6. 5.Scream.5.2022.BluRay.1080p.DTS-HD.MA7.1.x265.10bit-ALT.mkv 9.92GB


复制代码

  1. ##### MediaInfo ######

  2. General

  3. Unique ID : 144739482548781408485821038196326669985 (0x6CE3CF73982D43CB58A0ECD9F3881EA1)

  4. Complete name : Scream.1.1996.BluRay.1080p.DTS-HD.MA.5.1.x265.10bit-ALT.mkv

  5. Format : Matroska

  6. Format version : Version 4

  7. File size : 10.7 GiB

  8. Duration : 1 h 51 min

  9. Overall bit rate mode : Variable

  10. Overall bit rate : 13.8 Mb/s

  11. Encoded date : UTC 2020-04-16 10:45:22

  12. Writing application : mkvmerge v45.0.0 ('Heaven in Pennies') 64-bit

  13. Writing library : libebml v1.3.10 + libmatroska v1.5.2


  14. Video

  15. ID : 1

  16. Format : HEVC

  17. Format/Info : High Efficiency Video Coding

  18. Format profile : Main [email protected]@High

  19. Codec ID : V_MPEGH/ISO/HEVC

  20. Duration : 1 h 51 min

  21. Bit rate : 9 697 kb/s

  22. Width : 1 920 pixels

  23. Height : 816 pixels

  24. Display aspect ratio : 2.35:1

  25. Frame rate mode : Constant

  26. Frame rate : 23.976 (24000/1001/53354) FPS

  27. Color space : YUV

  28. Chroma subsampling : 4:2:0

  29. Bit depth : 10 bits

  30. Bits/(Pixel*Frame) : 0.258

  31. Stream size : 7.53 GiB (70%)

  32. Title : HEVC, [email protected]@High, 24/1.001 fps @ 9697 kbps

  33. Writing library : x265 3.3+1-g396395b2b:[Windows][GCC 9.2.0][64 bit] 10bit

  34. Encoding settings : cpuid=533541111039 / frame-threads=5 / numa-pools=44,44 / wpp / pmode / pme / no-psnr / no-ssim / log-level=2 / input-csp=1 / input-res=1920x816 / interlace=0 / total-frames=159960 / level-idc=51 / high-tier=1 / uhd-bd=0 / ref=5 / no-allow-non-conformance / no-repeat-headers / annexb / no-aud / no-hrd / info / hash=0 / no-temporal-layers / open-gop / min-keyint=24 / keyint=240 / gop-lookahead=0 / bframes=6 / b-adapt=2 / b-pyramid / bframe-bias=0 / rc-lookahead=40 / lookahead-slices=0 / NTMzNTQ=uuDQuD2mJt9fsCf / scenecut=40 / hist-scenecut=0 / radl=0 / no-splice / no-intra-refresh / ctu=32 / min-cu-size=8 / no-rect / no-amp / max-tu-size=32 / tu-inter-depth=3 / tu-intra-depth=3 / limit-tu=4 / rdoq-level=2 / dynamic-rd=0.00 / no-ssim-rd / signhide / no-tskip / nr-intra=0 / nr-inter=0 / no-constrained-intra / no-strong-intra-smoothing / max-merge=4 / limit-refs=1 / limit-modes / me=3 / subme=4 / merange=25 / temporal-mvp / no-frame-dup / no-hme / weightp / weightb / no-analyze-src-pics / deblock=-3:-3 / no-sao / no-sao-non-deblock / rd=6 / selective-sao=0 / no-early-skip / rskip / no-fast-intra / no-tskip-fast / no-cu-lossless / b-intra / no-splitrd-skip / rdpenalty=0 / psy-rd=2.00 / psy-rdoq=1.00 / no-rd-refine / no-lossless / cbqpoffs=0 / crqpoffs=0 / rc=crf / crf=18.5 / qcomp=0.65 / qpstep=4 / stats-write=0 / stats-read=0 / vbv-maxrate=80000 / vbv-bufsize=80000 / vbv-init=0.9 / crf-max=0.0 / crf-min=0.0 / ipratio=1.40 / pbratio=1.30 / aq-mode=2 / aq-strength=0.85 / cutree / zone-count=0 / no-strict-cbr / qg-size=32 / no-rc-grain / qpmax=69 / qpmin=0 / no-const-vbv / sar=1 / overscan=0 / videoformat=5 / range=0 / colorprim=1 / transfer=1 / colormatrix=1 / chromaloc=0 / display-window=0 / cll=0,0 / min-luma=0 / max-luma=1023 / log2-max-poc-lsb=8 / vui-timing-info / vui-hrd-info / slices=1 / no-opt-qp-pps / no-opt-ref-list-length-pps / no-multi-pass-opt-rps / scenecut-bias=0.05 / hist-threshold=0.01 / no-opt-cu-delta-qp / no-aq-motion / no-hdr10 / no-hdr10-opt / no-dhdr10-opt / no-idr-recovery-sei / analysis-reuse-level=0 / analysis-save-reuse-level=0 / analysis-load-reuse-level=0 / scale-factor=0 / refine-intra=0 / refine-inter=0 / refine-mv=1 / refine-ctu-distortion=0 / no-limit-sao / ctu-info=0 / no-lowpass-dct / refine-analysis-type=0 / copy-pic=1 / max-ausize-factor=1.0 / no-dynamic-refine / no-single-sei / no-hevc-aq / no-svt / no-field / qp-adaptation-range=1.00 / no-scenecut-aware-qpconformance-window-offsets / right=0 / bottom=0 / NTMzNTQ=

  35. Language : English

  36. Default : Yes

  37. Forced : No

  38. Color range : Limited

  39. Color primaries : BT.709

  40. Transfer characteristics : BT.709

  41. Matrix coefficients : BT.709


  42. Audio

  43. ID : 2

  44. Format : DTS XLL

  45. Format/Info : Digital Theater Systems

  46. Commercial name : DTS-HD Master Audio

  47. Codec ID : A_DTS

  48. Duration : 1 h 51 min

  49. Bit rate mode : Variable

  50. Bit rate : 4 109 kb/s

  51. Channel(s) : 6 channels

  52. Channel layout : C L R Ls Rs LFE

  53. Sampling rate : 48.0 kHz

  54. Frame rate : 93.750 FPS (512 SPF)

  55. Bit depth : 24 bits

  56. Compression mode : Lossless

  57. Stream size : 3.19 GiB (30%)

  58. Title : English DTS-HD Master Audio 5.1 @ 4109 kbps

  59. Language : English

  60. Default : Yes

  61. Forced : No


  62. Text

  63. ID : 3

  64. Format : PGS

  65. Codec ID : S_HDMV/PGS

  66. Codec ID/Info : Picture based subtitle format used on BDs/HD-DVDs

  67. Duration : 1 h 43 min

  68. Bit rate : 32.9 kb/s

  69. Count of elements : 2499

  70. Stream size : 24.3 MiB (0%)

  71. Title : Chs/SUP 简体

  72. Language : Chinese

  73. Default : Yes

  74. Forced : No




复制代码



文件下载


除非特别注明,本文『惊声尖叫[共5部合集][简体字幕].Scream.1-5.1996-2022.BluRay.1080p.DTS-HD.MA.5.1.x265.10bit-ALT 49.60GB』来源于互联网机器人自动抓取,非本站原创。 浮游电影网不对本文拥有版权,如有侵犯,请联系邮箱:fuyouu#yandex.com[#换成@]投诉。我们会在15个工作日内删除。 但烦请转载时请标明出处:“本文转载于『浮游电影网』,原文地址:https://www.fuyouu.com/21700.html

评论吧骚年!

发表你的见解   

昵称*

E-mail*(建议输入,以便收到博主回复的提示邮件)

验证码*

您可以使用eMule或eMule Mod(Windows)、aMule(Win、Linux、Mac)等软件下载eD2k链接。。
eMule收藏集(.emulecollection)文件是您选中的所有链接的列表文件。eMule可以直接下载它们。
按住SHIFT键选择可以选中多个选择框。
可用文件名和大小选择器来选择文件。
文件名选择器帮您根据文件名称或后缀来选择文件。不分大小写。
符号使用:
和:空格( )、+
不包含:-
或:|
转义:一对英文引号("");
匹配开头:^
匹配结尾:$
例如:
选中所有名称中包含有“eMule”或“0.49c”字眼,但不包含有“exe”字眼的:emule|0.49c -exe
选中所有名称的开头是“eMule”,结尾是“0.49c”的:^emule 0.49c$
选中所有名称中带有“eMule 0.49c”的(必须是“eMule 0.49c”,中间没有别的字符,不能是“eMule fake 0.49c”),需要转义:"emule 0.49c"
大小选择器帮您根据文件大小选择文件。