当前位置: 首页 >> 欧美电影 >> 电锯惊魂[共9部合集][简繁英字幕].SAW.1-9.2004-2021.BluRay.1080p.DTS-HD.MA.7.1.x265.10bit-ALT 80.19GB >> 正文

电锯惊魂[共9部合集][简繁英字幕].SAW.1-9.2004-2021.BluRay.1080p.DTS-HD.MA.7.1.x265.10bit-ALT 80.19GB

2022年04月24日 23:06:05     电影发布:来源于网络     电影分类:欧美电影     评论(0)    

电锯惊魂[共9部合集][简繁英字幕].SAW.1 9.2004 2021.BluRay.1080p.DTS HD.MA.7.1.x265.10bit ALT 80.19GB  欧美电影  第1张

◎译 名 电锯惊魂 / 恐惧斗室(港) / 夺魂锯(台) / 你死我活 / 链锯惊魂

◎片 名 Saw

◎年 代 2004

◎产 地 美国

◎类 别 悬疑 / 惊悚 / 恐怖

◎语 言 英语

◎上映日期 2004-01-19(圣丹斯电影节) / 2004-10-29(美国)

◎IMDb链接 https://www.imdb.com/title/tt0387564/

◎豆瓣评分 8.7/10 (474895人评价)

◎豆瓣链接 https://movie.douban.com/subject/1417598/

◎片 长 103分钟

◎导 演 温子仁 James Wan (id:1032122)

◎编 剧 温子仁 James Wan (id:1032122)

雷·沃纳尔 Leigh Whannell (id:1014029)

◎演 员 雷·沃纳尔 Leigh Whannell (id:1014029)

加利·艾尔维斯 Cary Elwes (id:1040521)

丹尼·格洛弗 Danny Glover (id:1010571)

肯·梁 Ken Leung (id:1004647)

迪娜·迈耶 Dina Meyer (id:1036357)

迈克·巴特斯 Mike Butters (id:1343015)

保罗·古德勒支 Paul Gutrecht (id:1099323)

迈克尔·爱默生 Michael Emerson (id:1049520)

本尼托·马丁内斯 Benito Martinez (id:1124343)

肖妮·史密斯 Shawnee Smith (id:1009317)

麦肯兹·韦加 Makenzie Vega (id:1155567)

莫妮卡·波特 Monica Potter (id:1009276)

耐德·巴拉米 Ned Bellamy (id:1048233)

亚丽姗德拉·全 Alexandra Bokyun Chun (id:1077081)

托宾·贝尔 Tobin Bell (id:1025219)

汉斯·雷斯 Hans Raith (id:1212947)

奥伦·科尔斯 Oren Koules (id:1005478)

奥伦·科尔斯 Oren Koules (id:1005478)

格雷格·霍夫曼 Gregg Hoffman (id:1018784)

理查德·H·普林斯 Richard H. Prince (id:1294919)

查理·克劳泽 Charlie Clouser (id:1009948)

大卫·A·阿姆斯特朗 David A. Armstrong (id:1276205)

凯文·格劳特 Kevin Greutert (id:1000481)

Amy Lippens Amy Lippens (id:1290117)

朱莉·贝格霍夫 Julie Berghoff (id:1425950)

乔纳·马科维茨 Jonah Markowitz (id:1302069)

罗基·福克纳 Rocky Faulkner (id:1203811)

Scott H. Eddo Scott H. Eddo (id:1089511)

David Hayes David Hayes (id:1099869)

◎简 介

一觉醒来的亚当(雷?沃纳尔 Leigh Whannell饰)发现自己被困在一个废弃的厕所里。他的对面是同样命运的劳伦斯(加利?艾尔维斯 Cary Elwes 饰)——他们被人用铁链绑住了腿,并吃惊发现二人中间横亘着一个恐怖的死人。死人鲜血淋漓,左手拿录放机右手拿枪。

亚 当兜里被人放进来一盘磁带,他赶紧放到录放机里。磁带里说,劳伦斯必须在今晚6点前杀死亚当,否则二人将同归于尽,劳伦斯的家人也不能幸免。而面前死人流出来的血,剧毒无比。

一个血腥的死亡游戏开始了。在剩下不多的时间里,他们必须找到线索,逃出地狱。在最后关头,当他们以为重见天日的时候,新一轮的噩梦才刚刚开始。

◎获奖情况 (共1项)

第14届MTV电影奖 (2005)

MTV电影奖 最佳惊恐戏表演(提名)

└──加利·艾尔维斯 (id:1040521)

  1. 合集文件列表:

  2. 1.Jigsaw.2017.BluRay.1080p.TrueHD.Atmos.7.1.x265.10bit-ALT.mkv 5.07GB

  3. 2.Saw.2004.BluRay.1080p.DTS-ES.6.1.x265.10bit-ALT.mkv 9.96GB

  4. 3.Saw.2021.BluRay.1080p.TrueHD.Atmos.7.1.x265.10bit-ALT.mkv 7.41GB

  5. 4.Saw.II.2005.BluRay.1080p.DTS-HR.6.1.x265.10bit-ALT.mkv 10.51GB

  6. 5.Saw.III.2006.BluRay.1080p.DTS-HR.6.1.x265.10bit-ALT.mkv 9.54GB

  7. 6.Saw.IV.2007.BluRay.1080p.DTS-HD.MA.7.1.x265.10bit-ALT.mkv 10.35GB

  8. 7.Saw.V.2008.BluRay.1080p.DTS-HD.MA.7.1.x265.10bit-ALT.mkv 9.72GB

  9. 8.Saw.VI.2009.BluRay.1080p.DTS-HD.MA.7.1.x265.10bit-ALT.mkv 9.38GB

  10. 9.Saw.VII.2010.BluRay.1080p.DTS-HD.MA.5.1.x265.10bit-ALT.mkv 8.26GB


复制代码

  1. ##### MediaInfo ######

  2. General

  3. Unique ID : 290818278358810540866085038124260558533 (0xDAC990252299D0A8DB23E65868B286C5)

  4. Complete name : Jigsaw.2017.BluRay.1080p.TrueHD.Atmos.7.1.x265.10bit-ALT.mkv

  5. Format : Matroska

  6. Format version : Version 4

  7. File size : 5.07 GiB

  8. Duration : 1 h 31 min

  9. Overall bit rate mode : Variable

  10. Overall bit rate : 7 898 kb/s

  11. Encoded date : UTC 2020-07-06 08:10:31

  12. Writing application : mkvmerge v48.0.0 ('Fortress Around Your Heart') 64-bit

  13. Writing library : libebml v1.4.0 + libmatroska v1.6.0


  14. Video

  15. ID : 1

  16. Format : HEVC

  17. Format/Info : High Efficiency Video Coding

  18. Format profile : Main [email protected]@High

  19. Codec ID : V_MPEGH/ISO/HEVC

  20. Duration : 1 h 31 min

  21. Bit rate : 2 972 kb/s

  22. Width : 1 920 pixels

  23. Height : 804 pixels

  24. Display aspect ratio : 2.40:1

  25. Frame rate mode : Constant

  26. Frame rate : 23.976 (24000/1001/53354) FPS

  27. Color space : YUV

  28. Chroma subsampling : 4:2:0

  29. Bit depth : 10 bits

  30. Bits/(Pixel*Frame) : 0.080

  31. Stream size : 1.91 GiB (38%)

  32. Title : HEVC, [email protected]@High, 24/1.001 fps @ 2972 kbps

  33. Writing library : x265 3.3+1-g396395b2b:[Windows][GCC 9.2.0][64 bit] 10bit

  34. Encoding settings : cpuid=533541111039 / frame-threads=5 / numa-pools=44,44 / wpp / pmode / pme / no-psnr / no-ssim / log-level=2 / input-csp=1 / input-res=1920x804 / interlace=0 / total-frames=132275 / level-idc=51 / high-tier=1 / uhd-bd=0 / ref=5 / no-allow-non-conformance / no-repeat-headers / annexb / no-aud / no-hrd / info / hash=0 / no-temporal-layers / open-gop / min-keyint=24 / keyint=240 / gop-lookahead=0 / bframes=6 / b-adapt=2 / b-pyramid / bframe-bias=0 / rc-lookahead=40 / lookahead-slices=0 / NTMzNTQ=uuDQuD2mJt9fsCf / scenecut=40 / hist-scenecut=0 / radl=0 / no-splice / no-intra-refresh / ctu=32 / min-cu-size=8 / no-rect / no-amp / max-tu-size=32 / tu-inter-depth=3 / tu-intra-depth=3 / limit-tu=4 / rdoq-level=2 / dynamic-rd=0.00 / no-ssim-rd / signhide / no-tskip / nr-intra=0 / nr-inter=0 / no-constrained-intra / no-strong-intra-smoothing / max-merge=4 / limit-refs=1 / limit-modes / me=3 / subme=4 / merange=25 / temporal-mvp / no-frame-dup / no-hme / weightp / weightb / no-analyze-src-pics / deblock=-3:-3 / no-sao / no-sao-non-deblock / rd=6 / selective-sao=0 / no-early-skip / rskip / no-fast-intra / no-tskip-fast / no-cu-lossless / b-intra / no-splitrd-skip / rdpenalty=0 / psy-rd=2.00 / psy-rdoq=1.00 / no-rd-refine / no-lossless / cbqpoffs=0 / crqpoffs=0 / rc=crf / crf=18.5 / qcomp=0.65 / qpstep=4 / stats-write=0 / stats-read=0 / vbv-maxrate=80000 / vbv-bufsize=80000 / vbv-init=0.9 / crf-max=0.0 / crf-min=0.0 / ipratio=1.40 / pbratio=1.30 / aq-mode=2 / aq-strength=0.85 / cutree / zone-count=0 / no-strict-cbr / qg-size=32 / no-rc-grain / qpmax=69 / qpmin=0 / no-const-vbv / sar=1 / overscan=0 / videoformat=5 / range=0 / colorprim=1 / transfer=1 / colormatrix=1 / chromaloc=0 / display-window=0 / cll=0,0 / min-luma=0 / max-luma=1023 / log2-max-poc-lsb=8 / vui-timing-info / vui-hrd-info / slices=1 / no-opt-qp-pps / no-opt-ref-list-length-pps / no-multi-pass-opt-rps / scenecut-bias=0.05 / hist-threshold=0.01 / no-opt-cu-delta-qp / no-aq-motion / no-hdr10 / no-hdr10-opt / no-dhdr10-opt / no-idr-recovery-sei / analysis-reuse-level=0 / analysis-save-reuse-level=0 / analysis-load-reuse-level=0 / scale-factor=0 / refine-intra=0 / refine-inter=0 / refine-mv=1 / refine-ctu-distortion=0 / no-limit-sao / ctu-info=0 / no-lowpass-dct / refine-analysis-type=0 / copy-pic=1 / max-ausize-factor=1.0 / no-dynamic-refine / no-single-sei / no-hevc-aq / no-svt / no-field / qp-adaptation-range=1.00 / no-scenecut-aware-qpconformance-window-offsets / right=0 / bottom=0 / NTMzNTQ=

  35. Language : English

  36. Default : Yes

  37. Forced : No

  38. Color range : Limited

  39. Color primaries : BT.709

  40. Transfer characteristics : BT.709

  41. Matrix coefficients : BT.709


  42. Audio #1

  43. ID : 2

  44. Format : MLP FBA 16-ch

  45. Format/Info : Meridian Lossless Packing FBA with 16-channel presentation

  46. Commercial name : Dolby TrueHD with Dolby Atmos

  47. Codec ID : A_TRUEHD

  48. Duration : 1 h 31 min

  49. Bit rate mode : Variable

  50. Bit rate : 3 817 kb/s

  51. Maximum bit rate : 6 375 kb/s

  52. Channel(s) : 8 channels

  53. Channel layout : L R C LFE Ls Rs Lb Rb

  54. Sampling rate : 48.0 kHz

  55. Frame rate : 1 200.000 FPS (40 SPF)

  56. Compression mode : Lossless

  57. Stream size : 2.45 GiB (48%)

  58. Title : English Dolby TrueHD 7.1 (Atmos) @ 4457 kbps

  59. Language : English

  60. Default : Yes

  61. Forced : No

  62. Number of dynamic objects : 11

  63. Bed channel count : 1 channel

  64. Bed channel configuration : LFE


  65. Audio #2

  66. ID : 3

  67. Format : AC-3

  68. Format/Info : Audio Coding 3

  69. Commercial name : Dolby Digital

  70. Codec ID : A_AC3

  71. Duration : 1 h 31 min

  72. Bit rate mode : Constant

  73. Bit rate : 640 kb/s

  74. Channel(s) : 6 channels

  75. Channel layout : L R C LFE Ls Rs

  76. Sampling rate : 48.0 kHz

  77. Frame rate : 31.250 FPS (1536 SPF)

  78. Compression mode : Lossy

  79. Stream size : 421 MiB (8%)

  80. Title : English Dolby Digital Audio 5.1 @ 640 kbps

  81. Language : English

  82. Service kind : Complete Main

  83. Default : No

  84. Forced : No


  85. Audio #3

  86. ID : 4

  87. Format : AC-3

  88. Format/Info : Audio Coding 3

  89. Commercial name : Dolby Digital

  90. Codec ID : A_AC3

  91. Duration : 1 h 31 min

  92. Bit rate mode : Constant

  93. Bit rate : 224 kb/s

  94. Channel(s) : 2 channels

  95. Channel layout : L R

  96. Sampling rate : 48.0 kHz

  97. Frame rate : 31.250 FPS (1536 SPF)

  98. Compression mode : Lossy

  99. Stream size : 147 MiB (3%)

  100. Title : English Dolby Digital Audio 2.0 @ 224 kbps Commentary

  101. Language : English

  102. Service kind : Complete Main

  103. Default : No

  104. Forced : No


  105. Text #1

  106. ID : 5

  107. Format : PGS

  108. Codec ID : S_HDMV/PGS

  109. Codec ID/Info : Picture based subtitle format used on BDs/HD-DVDs

  110. Duration : 1 h 31 min

  111. Bit rate : 40.9 kb/s

  112. Count of elements : 2702

  113. Stream size : 26.7 MiB (1%)

  114. Title : Eng/SUP

  115. Language : English

  116. Default : No

  117. Forced : No


  118. Text #2

  119. ID : 6

  120. Format : PGS

  121. Codec ID : S_HDMV/PGS

  122. Codec ID/Info : Picture based subtitle format used on BDs/HD-DVDs

  123. Duration : 1 h 24 min

  124. Bit rate : 29.8 kb/s

  125. Count of elements : 1941

  126. Stream size : 18.1 MiB (0%)

  127. Title : Chs/SUP 简体

  128. Language : Chinese

  129. Default : Yes

  130. Forced : No


  131. Text #3

  132. ID : 7

  133. Format : PGS

  134. Codec ID : S_HDMV/PGS

  135. Codec ID/Info : Picture based subtitle format used on BDs/HD-DVDs

  136. Duration : 1 h 24 min

  137. Bit rate : 31.5 kb/s

  138. Count of elements : 1941

  139. Stream size : 19.1 MiB (0%)

  140. Title : Cht/SUP 繁体

  141. Language : Chinese

  142. Default : No

  143. Forced : No


  144. Text #4

  145. ID : 8

  146. Format : PGS

  147. Codec ID : S_HDMV/PGS

  148. Codec ID/Info : Picture based subtitle format used on BDs/HD-DVDs

  149. Duration : 1 h 24 min

  150. Bit rate : 41.1 kb/s

  151. Count of elements : 1941

  152. Stream size : 25.0 MiB (0%)

  153. Title : Chs/SUP 简英双语

  154. Language : Chinese

  155. Default : No

  156. Forced : No


  157. Text #5

  158. ID : 9

  159. Format : PGS

  160. Codec ID : S_HDMV/PGS

  161. Codec ID/Info : Picture based subtitle format used on BDs/HD-DVDs

  162. Duration : 1 h 24 min

  163. Bit rate : 42.7 kb/s

  164. Count of elements : 1941

  165. Stream size : 25.9 MiB (0%)

  166. Title : Cht/SUP 繁英双语

  167. Language : Chinese

  168. Default : No

  169. Forced : No


  170. Menu

  171. 00:00:00.000 : en:第 01 章

  172. 00:03:46.977 : en:第 02 章

  173. 00:10:39.848 : en:第 03 章

  174. 00:14:09.974 : en:第 04 章

  175. 00:22:39.608 : en:第 05 章

  176. 00:29:03.408 : en:第 06 章

  177. 00:35:18.533 : en:第 07 章

  178. 00:40:38.519 : en:第 08 章

  179. 00:43:09.212 : en:第 09 章

  180. 00:46:12.353 : en:第 10 章

  181. 00:52:00.743 : en:第 11 章

  182. 00:56:34.224 : en:第 12 章

  183. 01:04:13.850 : en:第 13 章

  184. 01:09:17.570 : en:第 14 章

  185. 01:13:33.284 : en:第 15 章

  186. 01:23:31.089 : en:第 16 章




复制代码



文件下载


除非特别注明,本文『电锯惊魂[共9部合集][简繁英字幕].SAW.1-9.2004-2021.BluRay.1080p.DTS-HD.MA.7.1.x265.10bit-ALT 80.19GB』来源于互联网机器人自动抓取,非本站原创。 浮游电影网不对本文拥有版权,如有侵犯,请联系邮箱:fuyouu#yandex.com[#换成@]投诉。我们会在15个工作日内删除。 但烦请转载时请标明出处:“本文转载于『浮游电影网』,原文地址:https://www.fuyouu.com/21699.html

评论吧骚年!

发表你的见解   

昵称*

E-mail*(建议输入,以便收到博主回复的提示邮件)

验证码*

您可以使用eMule或eMule Mod(Windows)、aMule(Win、Linux、Mac)等软件下载eD2k链接。。
eMule收藏集(.emulecollection)文件是您选中的所有链接的列表文件。eMule可以直接下载它们。
按住SHIFT键选择可以选中多个选择框。
可用文件名和大小选择器来选择文件。
文件名选择器帮您根据文件名称或后缀来选择文件。不分大小写。
符号使用:
和:空格( )、+
不包含:-
或:|
转义:一对英文引号("");
匹配开头:^
匹配结尾:$
例如:
选中所有名称中包含有“eMule”或“0.49c”字眼,但不包含有“exe”字眼的:emule|0.49c -exe
选中所有名称的开头是“eMule”,结尾是“0.49c”的:^emule 0.49c$
选中所有名称中带有“eMule 0.49c”的(必须是“eMule 0.49c”,中间没有别的字符,不能是“eMule fake 0.49c”),需要转义:"emule 0.49c"
大小选择器帮您根据文件大小选择文件。