当前位置: 首页 >> 欧美电影 >> 大侦探福尔摩斯[共2部合集][繁英字幕].Sherlock.Holmes.1-2.2009-2011.BluRay.1080p.DTS-HD.MA5.1.x265.10bit-ALT 27.48GB >> 正文

大侦探福尔摩斯[共2部合集][繁英字幕].Sherlock.Holmes.1-2.2009-2011.BluRay.1080p.DTS-HD.MA5.1.x265.10bit-ALT 27.48GB

2022年04月24日 23:05:15     电影发布:来源于网络     电影分类:欧美电影     评论(0)    

大侦探福尔摩斯[共2部合集][繁英字幕].Sherlock.Holmes.1 2.2009 2011.BluRay.1080p.DTS HD.MA5.1.x265.10bit ALT 27.48GB  欧美电影  第1张

◎译 名 大侦探福尔摩斯 / 神探福尔摩斯(港) / 福尔摩斯(台) / 福尔摩斯和华生

◎片 名 Sherlock Holmes

◎年 代 2009

◎产 地 美国 / 德国

◎类 别 动作 / 悬疑 / 犯罪

◎语 言 英语 / 法语

◎上映日期 2010-02-25(中国大陆) / 2009-12-25(美国)

◎IMDb链接 https://www.imdb.com/title/tt0988045/

◎豆瓣评分 7.7/10 (295619人评价)

◎豆瓣链接 https://movie.douban.com/subject/2998270/

◎片 长 128分钟

◎导 演 盖·里奇 Guy Ritchie (id:1025148)

◎编 剧 迈克尔·罗伯特·约翰逊 Michael Robert Johnson (id:1324569)

安东尼·佩卡姆 Anthony Peckham (id:1302627)

西蒙·金伯格 Simon Kinberg (id:1022982)

莱昂内尔·威格拉姆 Lionel Wigram (id:1300891)

◎演 员 小罗伯特·唐尼 Robert Downey Jr. (id:1016681)

裘德·洛 Jude Law (id:1010510)

瑞秋·麦克亚当斯 Rachel McAdams (id:1053587)

马克·斯特朗 Mark Strong (id:1274374)

埃迪·马森 Eddie Marsan (id:1291072)

罗伯特·梅耶 Robert Maillet (id:1040613)

杰拉丁妮·詹姆斯 Geraldine James (id:1010653)

凯利·蕾莉 Kelly Reilly (id:1009283)

威廉·休斯顿 William Houston (id:1100629)

汉斯·麦瑟逊 Hans Matheson (id:1022695)

詹姆斯·福克斯 James Fox (id:1080877)

威廉·霍普 William Hope (id:1323341)

克里夫·罗素 Clive Russell (id:1036706)

凯·迪斯卡拉 Ky Discala (id:1467423)

汤姆·瓦特 Tom Watt (id:1167551)

布罗娜·加拉赫 Bronagh Gallagher (id:1284418)

杰佛逊·豪尔 Jefferson Hall (id:1343261)

迈尔斯·贾普 Miles Jupp (id:1206271)

马恩·戴维斯 Marn Davies (id:1405637)

奈德·丹内利 Ned Dennehy (id:1326563)

詹姆斯·格林尼 James Greene (id:1101177)

本·卡特赖特 Ben Cartwright (id:1327008)

迈克尔·吉恩 Michael Jenn (id:1341837)

盖·威廉姆斯 Guy Williams (id:1438254)

彼得·迈尔斯 Peter Miles (id:1292048)

Andrew Goldfarb Andrew Goldfarb (id:1227856)

Thomas Kadman (id:1227907)

Brendan McCoy Brendan McCoy (id:1226537)

罗可·里奇 Rocco Ritchie (id:1023178)

James A. Stephens James A. Stephens (id:1298376)

苏珊·唐尼 Susan Downey (id:1040608)

莱昂内尔·威格拉姆 Lionel Wigram (id:1300891)

Steve Clark-Hall Steve Clark-Hall (id:1280858)

汉斯·季默 Hans Zimmer (id:1054386)

莎拉·格林伍德 Sarah Greenwood (id:1285412)

凯蒂·斯宾塞 Katie Spencer (id:1298142)

尼克·戈特沙尔克 Nick Gottschalk (id:1301976)

马修·格雷 Matthew Gray (id:1285335)

James Foster James Foster (id:1284030)

尼尔·莫罗尼 Niall Moroney (id:1292529)

珍妮·碧万 Jenny Beavan (id:1278169)

克里斯汀·布伦戴尔 Christine Blundell (id:1278844)

保罗·詹宁斯 Paul Jennings (id:1287680)

乔纳森·福克纳尔 Jonathan Fawkner (id:1302174)

Gurel Mehmet Gurel Mehmet (id:1307948)

洛朗·乌格尼奥 Laurent Hugueniot (id:1302532)

安吉拉·巴松 Angela Barson (id:1278010)

Sean Samuels Sean Samuels (id:1305394)

Daniel Barrow Daniel Barrow (id:1303565)

Kate Windibank Kate Windibank (id:1301071)

杰森·霍尔利 Jason Horley (id:1286921)

Alex Cumming Alex Cumming (id:1310498)

大卫·维克里 David Vickery (id:1312539)

柴斯·贾瑞特 Chas Jarrett (id:1302757)

Jan Adamczyk Jan Adamczyk (id:1310806)

萨姆·奥斯伯恩 Sam Osborne (id:1310789)

◎简 介

大侦探福尔摩斯(小罗伯特·唐尼 Robert Downer Jr. 饰)即使在置人于死地之时也异常的逻辑清晰,然而办案时有条不紊的他在私底下的生活中简直就是个“怪胎”,至少在他的助手华生医生(裘德·洛 Jude Law饰)眼中他是这样一个人。他们亲手绳之以法的“黑暗巫师”布莱克大人(马克·斯特朗 Mark Strong 饰)在临死前说死亡即是开始,随后艾琳·艾德勒(瑞秋·麦克亚当斯 Rachel McAdams 饰)出现在他的身边要他帮忙找个失踪的人,而她身边有个影子般可怕人物。坊间传说黑暗巫师已经复活,他的墓地遭到破坏,而躺在棺材里的人另有其人。又到了大侦探福尔摩斯出马的时候了,然而调查过程从一开始就险象环生,助手华生医生在调查中更是险些丧命,福尔摩斯也陷入连串的迷团之中。

本片根据著名同名漫画改编,作者莱昂纳尔·威格拉姆(Lionel Wigra...

◎获奖情况 (共7项)

第82届奥斯卡金像奖 (2010)

最佳艺术指导(提名)

最佳原创配乐(提名)

└──汉斯·季默 (id:1054386)

第67届金球奖 (2010)

电影类 音乐/喜剧片最佳男主角

└──小罗伯特·唐尼 (id:1016681)

第19届MTV电影奖 (2010)

MTV电影奖 最佳打斗(提名)

第12届美国青少年选择奖 (2010)

最佳动作冒险电影

最佳动作冒险电影男演员(提名)

└──小罗伯特·唐尼 (id:1016681)

最佳动作冒险电影女演员

└──瑞秋·麦克亚当斯 (id:1053587)

  1. 合集文件列表:

  2. 1.Sherlock.Holmes.2009.BluRay.1080p.DTS-HD.MA5.1.x265.10bit-ALT.mkv 14.68GB

  3. 2.Sherlock.Holmes.A.Game.of.Shadows.2011.BluRay.1080p.2Audio.DTS-HD.MA5.1.x265.10bit-ALT.mkv 12.80GB


复制代码

  1. ##### MediaInfo ######

  2. General

  3. Unique ID : 14275001479214653039715668989306031592 (0xABD43E96C3C2721ACE65561B8B54DE8)

  4. Complete name : Sherlock.Holmes.2009.BluRay.1080p.DTS-HD.MA5.1.x265.10bit-BeiTai.mkv

  5. Format : Matroska

  6. Format version : Version 4

  7. File size : 14.7 GiB

  8. Duration : 2 h 8 min

  9. Overall bit rate mode : Variable

  10. Overall bit rate : 16.4 Mb/s

  11. Encoded date : UTC 2020-09-25 02:04:52

  12. Writing application : mkvmerge v50.0.0 ('Awakenings') 64-bit

  13. Writing library : libebml v1.4.0 + libmatroska v1.6.2

  14. Video

  15. ID : 1

  16. Format : HEVC

  17. Format/Info : High Efficiency Video Coding

  18. Format profile : Main [email protected]@High

  19. Codec ID : V_MPEGH/ISO/HEVC

  20. Duration : 2 h 8 min

  21. Bit rate : 12.3 Mb/s

  22. Width : 1 920 pixels

  23. Height : 1 080 pixels

  24. Display aspect ratio : 16:9

  25. Frame rate mode : Constant

  26. Frame rate : 23.976 (24000/1001/53354) FPS

  27. Color space : YUV

  28. Chroma subsampling : 4:2:0

  29. Bit depth : 10 bits

  30. Bits/(Pixel*Frame) : 0.247

  31. Stream size : 11.0 GiB (75%)

  32. Title : HEVC, [email protected]@High, 24/1.001 fps @ 12283 kbps

  33. Writing library : x265 3.3+1-g396395b2b:[Windows][GCC 9.2.0][64 bit] 10bit

  34. Encoding settings : cpuid=533541111039 / frame-threads=5 / numa-pools=44,44 / wpp / pmode / pme / no-psnr / no-ssim / log-level=2 / input-csp=1 / input-res=1920x1080 / interlace=0 / total-frames=184729 / level-idc=51 / high-tier=1 / uhd-bd=0 / ref=5 / no-allow-non-conformance / no-repeat-headers / annexb / no-aud / no-hrd / info / hash=0 / no-temporal-layers / open-gop / min-keyint=24 / keyint=240 / gop-lookahead=0 / bframes=6 / b-adapt=2 / b-pyramid / bframe-bias=0 / rc-lookahead=40 / lookahead-slices=0 / NTMzNTQ=uuDQuD2mJt9fsCf / scenecut=40 / hist-scenecut=0 / radl=0 / no-splice / no-intra-refresh / ctu=32 / min-cu-size=8 / no-rect / no-amp / max-tu-size=32 / tu-inter-depth=3 / tu-intra-depth=3 / limit-tu=4 / rdoq-level=2 / dynamic-rd=0.00 / no-ssim-rd / signhide / no-tskip / nr-intra=0 / nr-inter=0 / no-constrained-intra / no-strong-intra-smoothing / max-merge=4 / limit-refs=1 / limit-modes / me=3 / subme=4 / merange=25 / temporal-mvp / no-frame-dup / no-hme / weightp / weightb / no-analyze-src-pics / deblock=-3:-3 / no-sao / no-sao-non-deblock / rd=6 / selective-sao=0 / no-early-skip / rskip / no-fast-intra / no-tskip-fast / no-cu-lossless / b-intra / no-splitrd-skip / rdpenalty=0 / psy-rd=2.00 / psy-rdoq=1.00 / no-rd-refine / no-lossless / cbqpoffs=0 / crqpoffs=0 / rc=crf / crf=17.0 / qcomp=0.65 / qpstep=4 / stats-write=0 / stats-read=0 / vbv-maxrate=80000 / vbv-bufsize=80000 / vbv-init=0.9 / crf-max=0.0 / crf-min=0.0 / ipratio=1.40 / pbratio=1.30 / aq-mode=2 / aq-strength=0.85 / cutree / zone-count=0 / no-strict-cbr / qg-size=32 / no-rc-grain / qpmax=69 / qpmin=0 / no-const-vbv / sar=1 / overscan=0 / videoformat=5 / range=0 / colorprim=1 / transfer=1 / colormatrix=1 / chromaloc=0 / display-window=0 / cll=0,0 / min-luma=0 / max-luma=1023 / log2-max-poc-lsb=8 / vui-timing-info / vui-hrd-info / slices=1 / no-opt-qp-pps / no-opt-ref-list-length-pps / no-multi-pass-opt-rps / scenecut-bias=0.05 / hist-threshold=0.01 / no-opt-cu-delta-qp / no-aq-motion / no-hdr10 / no-hdr10-opt / no-dhdr10-opt / no-idr-recovery-sei / analysis-reuse-level=0 / analysis-save-reuse-level=0 / analysis-load-reuse-level=0 / scale-factor=0 / refine-intra=0 / refine-inter=0 / refine-mv=1 / refine-ctu-distortion=0 / no-limit-sao / ctu-info=0 / no-lowpass-dct / refine-analysis-type=0 / copy-pic=1 / max-ausize-factor=1.0 / no-dynamic-refine / no-single-sei / no-hevc-aq / no-svt / no-field / qp-adaptation-range=1.00 / no-scenecut-aware-qpconformance-window-offsets / right=0 / bottom=0 / NTMzNTQ=

  35. Language : English

  36. Default : Yes

  37. Forced : No

  38. Color range : Limited

  39. Color primaries : BT.709

  40. Transfer characteristics : BT.709

  41. Matrix coefficients : BT.709

  42. Audio

  43. ID : 2

  44. Format : DTS XLL

  45. Format/Info : Digital Theater Systems

  46. Commercial name : DTS-HD Master Audio

  47. Codec ID : A_DTS

  48. Duration : 2 h 8 min

  49. Bit rate mode : Variable

  50. Bit rate : 4 002 kb/s

  51. Channel(s) : 6 channels

  52. Channel layout : C L R Ls Rs LFE

  53. Sampling rate : 48.0 kHz

  54. Frame rate : 93.750 FPS (512 SPF)

  55. Bit depth : 24 bits

  56. Compression mode : Lossless

  57. Stream size : 3.59 GiB (24%)

  58. Title : English DTS-HD Master Audio 5.1 @ 4002 kbps

  59. Language : English

  60. Default : Yes

  61. Forced : No

  62. Text #1

  63. ID : 3

  64. Format : PGS

  65. Codec ID : S_HDMV/PGS

  66. Codec ID/Info : Picture based subtitle format used on BDs/HD-DVDs

  67. Duration : 2 h 8 min

  68. Bit rate : 30.9 kb/s

  69. Count of elements : 3020

  70. Stream size : 28.3 MiB (0%)

  71. Title : Eng/SUP

  72. Language : English

  73. Default : No

  74. Forced : No

  75. Text #2

  76. ID : 4

  77. Format : PGS

  78. Codec ID : S_HDMV/PGS

  79. Codec ID/Info : Picture based subtitle format used on BDs/HD-DVDs

  80. Duration : 2 h 8 min

  81. Bit rate : 21.3 kb/s

  82. Count of elements : 2864

  83. Stream size : 19.5 MiB (0%)

  84. Title : Cht/SUP 原盘繁体(HK)

  85. Language : Chinese

  86. Default : No

  87. Forced : No

  88. Text #3

  89. ID : 5

  90. Format : PGS

  91. Codec ID : S_HDMV/PGS

  92. Codec ID/Info : Picture based subtitle format used on BDs/HD-DVDs

  93. Duration : 2 h 8 min

  94. Bit rate : 24.6 kb/s

  95. Count of elements : 2896

  96. Stream size : 22.6 MiB (0%)

  97. Title : Cht/SUP 原盘繁体(TW)

  98. Language : Chinese

  99. Default : Yes

  100. Forced : No

  101. Menu

  102. 00:00:00.000 : en:第 01 章

  103. 00:06:46.531 : en:第 02 章

  104. 00:11:30.231 : en:第 03 章

  105. 00:15:41.607 : en:第 04 章

  106. 00:19:08.898 : en:第 05 章

  107. 00:23:29.074 : en:第 06 章

  108. 00:27:49.876 : en:第 07 章

  109. 00:32:01.253 : en:第 08 章

  110. 00:37:08.434 : en:第 09 章

  111. 00:40:50.406 : en:第 10 章

  112. 00:44:37.216 : en:第 11 章

  113. 00:47:39.690 : en:第 12 章

  114. 00:50:52.174 : en:第 13 章

  115. 00:55:17.606 : en:第 14 章

  116. 00:59:04.457 : en:第 15 章

  117. 01:03:04.781 : en:第 16 章

  118. 01:06:08.047 : en:第 17 章

  119. 01:11:14.103 : en:第 18 章

  120. 01:14:39.350 : en:第 19 章

  121. 01:17:36.318 : en:第 20 章

  122. 01:23:35.093 : en:第 21 章

  123. 01:26:06.953 : en:第 22 章

  124. 01:30:57.160 : en:第 23 章

  125. 01:35:15.376 : en:第 24 章

  126. 01:39:45.980 : en:第 25 章

  127. 01:44:18.002 : en:第 26 章

  128. 01:48:21.954 : en:第 27 章

  129. 01:54:02.711 : en:第 28 章

  130. 01:56:07.502 : en:第 29 章

  131. 02:00:26.177 : en:第 30 章


复制代码



文件下载


除非特别注明,本文『大侦探福尔摩斯[共2部合集][繁英字幕].Sherlock.Holmes.1-2.2009-2011.BluRay.1080p.DTS-HD.MA5.1.x265.10bit-ALT 27.48GB』来源于互联网机器人自动抓取,非本站原创。 浮游电影网不对本文拥有版权,如有侵犯,请联系邮箱:fuyouu#yandex.com[#换成@]投诉。我们会在15个工作日内删除。 但烦请转载时请标明出处:“本文转载于『浮游电影网』,原文地址:https://www.fuyouu.com/21698.html

评论吧骚年!

发表你的见解   

昵称*

E-mail*(建议输入,以便收到博主回复的提示邮件)

验证码*

您可以使用eMule或eMule Mod(Windows)、aMule(Win、Linux、Mac)等软件下载eD2k链接。。
eMule收藏集(.emulecollection)文件是您选中的所有链接的列表文件。eMule可以直接下载它们。
按住SHIFT键选择可以选中多个选择框。
可用文件名和大小选择器来选择文件。
文件名选择器帮您根据文件名称或后缀来选择文件。不分大小写。
符号使用:
和:空格( )、+
不包含:-
或:|
转义:一对英文引号("");
匹配开头:^
匹配结尾:$
例如:
选中所有名称中包含有“eMule”或“0.49c”字眼,但不包含有“exe”字眼的:emule|0.49c -exe
选中所有名称的开头是“eMule”,结尾是“0.49c”的:^emule 0.49c$
选中所有名称中带有“eMule 0.49c”的(必须是“eMule 0.49c”,中间没有别的字符,不能是“eMule fake 0.49c”),需要转义:"emule 0.49c"
大小选择器帮您根据文件大小选择文件。