当前位置: 首页 >> 国产电影 >> 少林寺[共3部合集][国语音轨/简繁字幕].Shaolin.Temple.1982-1986.BluRay.1080p.DTS-HD.MA.5.1.x265.10bit-ALT 25.12GB >> 正文

少林寺[共3部合集][国语音轨/简繁字幕].Shaolin.Temple.1982-1986.BluRay.1080p.DTS-HD.MA.5.1.x265.10bit-ALT 25.12GB

2022年04月24日 23:04:20     电影发布:来源于网络     电影分类:国产电影     评论(0)    

少林寺[共3部合集][国语音轨/简繁字幕].Shaolin.Temple.1982 1986.BluRay.1080p.DTS HD.MA.5.1.x265.10bit ALT 25.12GB  国产电影  第1张

◎译 名 少林寺 / The Shaolin Temple / Shao Lin tzu

◎年 代 1982

◎产 地 中国大陆 / 中国香港

◎类 别 动作 / 武侠 / 古装

◎语 言 汉语普通话

◎上映日期 1982-02-01(中国大陆) / 1982-01-21(中国香港)

◎IMDb链接 https://www.imdb.com/title/tt0079891/

◎豆瓣评分 8.3/10 (95146人评价)

◎豆瓣链接 https://movie.douban.com/subject/1301198/

◎片 长 95分钟

◎导 演 张鑫炎 Hsin-Yen Chang (id:1274841)

◎编 剧 卢兆璋 Shau-Chang Lu (id:1322413)

薛后 Hau Sit (id:1347791)

◎演 员 李连杰 Jet Li (id:1025146)

于海 Hai Yu (id:1312752)

丁岚 Lan Ding (id:1274837)

于承惠 Chenghui Yu (id:1316257)

计春华 Chunhua Ji (id:1275319)

王光权 Guangquan Wang (id:1340052)

胡坚强 Jianqiang Hu (id:1322317)

孙建魁 Jiankui Sun (id:1319122)

刘怀良 Huailiang Liu (id:1347793)

张建文 Jianwen Zhang (id:1347797)

阎涤华 Dihua Yan (id:1347795)

王珏 Jue Wang (id:1316753)

杜传扬 Chuanyang Du (id:1347796)

崔志强 Zhiqiang Cui (id:1347794)

寻峰 Fung Cham (id:1335513)

潘汉光 Hanguang Pan (id:1347792)

潘清福 Qingfu Pan (id:1322316)

蒋洪波 Hongbo Jiang (id:1375281)

童自荣 Zirong Tong (id:1318216)

户田惠子 Keiko Toda (id:1051741)

毕克 Ke Bi (id:1322554)

钱似莺 Tsi-Ang Chin (id:1211064)

成运安 Shing Gwan-On (id:1407239)

方平 Ping Fang (id:1452638)

廖一原 Yi-Yuan Liao (id:1430478)

王立平 Liping Wang (id:1326489)

冯光涛 Guangtao Feng (id:1441460)

戴建明 Jianming Dai (id:1438861)

郑绪岚 Xulan Zheng (id:1452615)

王炳志 Bingzhi Wang (id:1452616)

赵高潮 Gaochao Zhao (id:1452619)

杜瑞安 Rui'an Du (id:1452618)

李权 Lee Kuen (id:1432098)

施扬平 Yeung-Ping Sze (id:1298770)

马贤达 Xianda Ma (id:1330749)

王常凯 Changkai Wang (id:1330750)

◎简 介

隋朝末年,隋将王世充的侄子王仁则(于承惠 饰)在督建河防工事时,杀死了起来反抗暴虐的神腿张,但令其儿子小虎子跳河逃离虎口。小虎子被少林僧人救起收入寺中后,为报父仇毅然削发为僧,法名“觉远”(李连杰 饰)。

王仁则的侍卫长遇见牧羊女白无瑕(丁岚 饰)后垂涎其美色,强行将其 抢回府并欲酒 后施暴,恰巧被只身前来报仇的觉远发现。在救白无瑕逃生的过程中,觉远因武功欠佳被王仁则刺伤,促使其回到少林寺后更加刻苦练功。后因觉远救援被王仁则追赶的李世民,少林寺遭遇劫难,觉远身上的责任更重一层。

◎获奖情况 (共1项)

第2届香港电影金像奖 (1983)

最佳动作设计(提名)

  1. 合集文件列表:

  2. 1.Shaolin.Temple.2.Kids.of.Shaolin.1984.BluRay.1080p.DTS-HD.MA5.1.x265.10bit-ALT.mkv 8.61GB

  3. 2.Shaolin.Temple.3.Martial.Arts.of.Shaolin.1986.BluRay.1080p.TrueHD.5.1.x265.10bit-ALT.mkv 7.52GB

  4. 3.The.Shaolin.Temple.1982.BluRay.1080p.DTS-HD.MA5.1.x265.10bit-ALT.mkv 8.99GB


复制代码

  1. ##### MediaInfo ######

  2. General

  3. Unique ID : 243074384398755232389654741125955841568 (0xB6DE6C6E9B00777F9F7021DB6763EE20)

  4. Complete name : Shaolin.Temple.2.Kids.of.Shaolin.1984.BluRay.1080p.DTS-HD.MA5.1.x265.10bit-BeiTai.mkv

  5. Format : Matroska

  6. Format version : Version 4

  7. File size : 8.61 GiB

  8. Duration : 1 h 43 min

  9. Overall bit rate mode : Variable

  10. Overall bit rate : 11.9 Mb/s

  11. Encoded date : UTC 2021-02-07 13:54:01

  12. Writing application : mkvmerge v49.0.0 ('Sick Of Losing Soulmates') 64-bit

  13. Writing library : libebml v1.4.0 + libmatroska v1.6.1

  14. Video

  15. ID : 1

  16. Format : HEVC

  17. Format/Info : High Efficiency Video Coding

  18. Format profile : Main [email protected]@High

  19. Codec ID : V_MPEGH/ISO/HEVC

  20. Duration : 1 h 43 min

  21. Bit rate : 9 468 kb/s

  22. Width : 1 920 pixels

  23. Height : 802 pixels

  24. Display aspect ratio : 2.40:1

  25. Frame rate mode : Constant

  26. Frame rate : 23.976 (24000/1001/53354) FPS

  27. Color space : YUV

  28. Chroma subsampling : 4:2:0

  29. Bit depth : 10 bits

  30. Bits/(Pixel*Frame) : 0.256

  31. Stream size : 6.84 GiB (79%)

  32. Title : HEVC, [email protected]@High, 24/1.001 fps @ 9467 kbps

  33. Writing library : x265 3.4+14-gd419c7152:[Windows][GCC 10.2.0][64 bit] 10bit

  34. Encoding settings : cpuid=533541111039 / frame-threads=4 / numa-pools=16 / wpp / pmode / pme / no-psnr / no-ssim / log-level=2 / input-csp=1 / input-res=1920x802 / interlace=0 / total-frames=148728 / level-idc=51 / high-tier=1 / uhd-bd=0 / ref=5 / no-allow-non-conformance / no-repeat-headers / annexb / no-aud / no-hrd / info / hash=0 / no-temporal-layers / open-gop / min-keyint=24 / keyint=240 / gop-lookahead=0 / bframes=6 / b-adapt=2 / b-pyramid / bframe-bias=0 / rc-lookahead=40 / lookahead-slices=0 / NTMzNTQ=uuDQuD2mJt9fsCf / scenecut=40 / hist-scenecut=0 / radl=0 / no-splice / no-intra-refresh / ctu=32 / min-cu-size=8 / no-rect / no-amp / max-tu-size=32 / tu-inter-depth=3 / tu-intra-depth=3 / limit-tu=4 / rdoq-level=2 / dynamic-rd=0.00 / no-ssim-rd / signhide / no-tskip / nr-intra=0 / nr-inter=0 / no-constrained-intra / no-strong-intra-smoothing / max-merge=4 / limit-refs=1 / limit-modes / me=3 / subme=4 / merange=25 / temporal-mvp / no-frame-dup / no-hme / weightp / weightb / no-analyze-src-pics / deblock=-3:-3 / no-sao / no-sao-non-deblock / rd=6 / selective-sao=0 / no-early-skip / rskip / no-fast-intra / no-tskip-fast / no-cu-lossless / b-intra / no-splitrd-skip / rdpenalty=0 / psy-rd=2.00 / psy-rdoq=1.00 / no-rd-refine / no-lossless / cbqpoffs=0 / crqpoffs=0 / rc=crf / crf=17.0 / qcomp=0.65 / qpstep=4 / stats-write=0 / stats-read=0 / vbv-maxrate=80000 / vbv-bufsize=80000 / vbv-init=0.9 / crf-max=0.0 / crf-min=0.0 / ipratio=1.40 / pbratio=1.30 / aq-mode=2 / aq-strength=0.85 / cutree / zone-count=0 / no-strict-cbr / qg-size=32 / no-rc-grain / qpmax=69 / qpmin=0 / no-const-vbv / sar=1 / overscan=0 / videoformat=5 / range=0 / colorprim=1 / transfer=1 / colormatrix=1 / chromaloc=0 / display-window=0 / cll=0,0 / min-luma=0 / max-luma=1023 / log2-max-poc-lsb=8 / vui-timing-info / vui-hrd-info / slices=1 / no-opt-qp-pps / no-opt-ref-list-length-pps / no-multi-pass-opt-rps / scenecut-bias=0.05 / hist-threshold=0.03 / no-opt-cu-delta-qp / no-aq-motion / no-hdr10 / no-hdr10-opt / no-dhdr10-opt / no-idr-recovery-sei / analysis-reuse-level=0 / analysis-save-reuse-level=0 / analysis-load-reuse-level=0 / scale-factor=0 / refine-intra=0 / refine-inter=0 / refine-mv=1 / refine-ctu-distortion=0 / no-limit-sao / ctu-info=0 / no-lowpass-dct / refine-analysis-type=0 / copy-pic=1 / max-ausize-factor=1.0 / no-dynamic-refine / no-single-sei / no-hevc-aq / no-svt / no-field / qp-adaptation-range=1.00 / no-scenecut-aware-qpconformance-window-offsets / right=0 / bottom=0 / NTMzNTQ= / decoder-max-rate=0

  35. Language : English

  36. Default : Yes

  37. Forced : No

  38. Color range : Limited

  39. Color primaries : BT.709

  40. Transfer characteristics : BT.709

  41. Matrix coefficients : BT.709

  42. Audio

  43. ID : 2

  44. Format : DTS XLL

  45. Format/Info : Digital Theater Systems

  46. Commercial name : DTS-HD Master Audio

  47. Codec ID : A_DTS

  48. Duration : 1 h 43 min

  49. Bit rate mode : Variable

  50. Bit rate : 2 415 kb/s

  51. Channel(s) : 6 channels

  52. Channel layout : C L R Ls Rs LFE

  53. Sampling rate : 48.0 kHz

  54. Frame rate : 93.750 FPS (512 SPF)

  55. Bit depth : 24 bits

  56. Compression mode : Lossless

  57. Stream size : 1.74 GiB (20%)

  58. Title : Mandarin DTS-HD Master Audio 5.1 @ 2415 kbps

  59. Language : Chinese

  60. Default : Yes

  61. Forced : No

  62. Text #1

  63. ID : 3

  64. Format : PGS

  65. Codec ID : S_HDMV/PGS

  66. Codec ID/Info : Picture based subtitle format used on BDs/HD-DVDs

  67. Duration : 1 h 39 min

  68. Bit rate : 17.4 kb/s

  69. Count of elements : 2408

  70. Stream size : 12.3 MiB (0%)

  71. Title : Chs/SUP 简体

  72. Language : Chinese

  73. Default : Yes

  74. Forced : No

  75. Text #2

  76. ID : 4

  77. Format : PGS

  78. Codec ID : S_HDMV/PGS

  79. Codec ID/Info : Picture based subtitle format used on BDs/HD-DVDs

  80. Duration : 1 h 39 min

  81. Bit rate : 17.9 kb/s

  82. Count of elements : 2408

  83. Stream size : 12.7 MiB (0%)

  84. Title : Cht/SUP 繁体

  85. Language : Chinese

  86. Default : No

  87. Forced : No

  88. Menu

  89. 00:00:00.000 : :第 01 章

  90. 00:03:39.261 : :第 02 章

  91. 00:08:33.263 : :第 03 章

  92. 00:13:17.130 : :第 04 章

  93. 00:16:38.164 : :第 05 章

  94. 00:21:14.732 : :第 06 章

  95. 00:26:44.686 : :第 07 章

  96. 00:32:56.892 : :第 08 章

  97. 00:36:19.969 : :第 09 章

  98. 00:41:02.627 : :第 10 章

  99. 00:44:38.092 : :第 11 章

  100. 00:48:00.795 : :第 12 章

  101. 00:54:01.655 : :第 13 章

  102. 00:58:51.653 : :第 14 章

  103. 01:01:14.129 : :第 15 章

  104. 01:05:09.197 : :第 16 章

  105. 01:08:27.270 : :第 17 章

  106. 01:12:24.423 : :第 18 章

  107. 01:18:53.354 : :第 19 章

  108. 01:24:44.621 : :第 20 章

  109. 01:28:21.838 : :第 21 章

  110. 01:33:31.105 : :第 22 章

  111. 01:38:45.169 : :第 23 章

  112. 01:41:49.437 : :第 24 章


复制代码



文件下载


除非特别注明,本文『少林寺[共3部合集][国语音轨/简繁字幕].Shaolin.Temple.1982-1986.BluRay.1080p.DTS-HD.MA.5.1.x265.10bit-ALT 25.12GB』来源于互联网机器人自动抓取,非本站原创。 浮游电影网不对本文拥有版权,如有侵犯,请联系邮箱:fuyouu#yandex.com[#换成@]投诉。我们会在15个工作日内删除。 但烦请转载时请标明出处:“本文转载于『浮游电影网』,原文地址:https://www.fuyouu.com/21697.html

评论吧骚年!

发表你的见解   

昵称*

E-mail*(建议输入,以便收到博主回复的提示邮件)

验证码*

您可以使用eMule或eMule Mod(Windows)、aMule(Win、Linux、Mac)等软件下载eD2k链接。。
eMule收藏集(.emulecollection)文件是您选中的所有链接的列表文件。eMule可以直接下载它们。
按住SHIFT键选择可以选中多个选择框。
可用文件名和大小选择器来选择文件。
文件名选择器帮您根据文件名称或后缀来选择文件。不分大小写。
符号使用:
和:空格( )、+
不包含:-
或:|
转义:一对英文引号("");
匹配开头:^
匹配结尾:$
例如:
选中所有名称中包含有“eMule”或“0.49c”字眼,但不包含有“exe”字眼的:emule|0.49c -exe
选中所有名称的开头是“eMule”,结尾是“0.49c”的:^emule 0.49c$
选中所有名称中带有“eMule 0.49c”的(必须是“eMule 0.49c”,中间没有别的字符,不能是“eMule fake 0.49c”),需要转义:"emule 0.49c"
大小选择器帮您根据文件大小选择文件。