当前位置: 首页 >> 欧美电影 >> 惊声尖笑[共5部合集][简繁字幕].Scary.Movie.1-5.2000-2013.BluRay.1080p.DTS-HD.MA.5.1.x265.10bit-ALT 32.22GB >> 正文

惊声尖笑[共5部合集][简繁字幕].Scary.Movie.1-5.2000-2013.BluRay.1080p.DTS-HD.MA.5.1.x265.10bit-ALT 32.22GB

2022年04月24日 23:03:22     电影发布:来源于网络     电影分类:欧美电影     评论(0)    

惊声尖笑[共5部合集][简繁字幕].Scary.Movie.1 5.2000 2013.BluRay.1080p.DTS HD.MA.5.1.x265.10bit ALT 32.22GB  欧美电影  第1张

◎译 名 惊声尖笑5 / 恐怖电影5 / 搞乜鬼夺命杂作5

◎片 名 Scary Movie 5

◎年 代 2013

◎产 地 美国

◎类 别 喜剧

◎语 言 英语

◎上映日期 2013-04-12(美国)

◎IMDb链接 https://www.imdb.com/title/tt0795461/

◎豆瓣评分 5.6/10 (18245人评价)

◎豆瓣链接 https://movie.douban.com/subject/1949877/

◎片 长 86分钟

◎导 演 马尔科姆·D·李 Malcolm D. Lee (id:1014323)

◎编 剧 帕特·普罗夫特 Pat Proft (id:1002902)

大卫·扎克 David Zucker (id:1027924)

◎演 员 西蒙·雷克斯 Simon Rex (id:1009381)

阿什丽·提斯代尔 Ashley Tisdale (id:1010535)

查理·辛 Charlie Sheen (id:1049490)

泰瑞·克鲁斯 Terry Crews (id:1022577)

卡特里娜·宝登 Katrina Bowden (id:1049568)

杰瑞·奥康奈尔 Jerry O'Connell (id:1006970)

琳赛·洛翰 Lindsay Lohan (id:1018988)

萨拉·海蓝德 Sarah Hyland (id:1036376)

亚瑟·雷蒙德 Usher Raymond (id:1027200)

史努比狗狗 Snoop Dogg (id:1027838)

莫莉·香侬 Molly Shannon (id:1049580)

达瑞尔·哈蒙德 Darrell Hammond (id:1027462)

卡特·威廉姆斯 Katt Williams (id:1049781)

杰斯米·盖 Jasmine Guy (id:1032045)

泰勒·珀西 Tyler Posey (id:1027373)

凯特·沃什 Kate Walsh (id:1027806)

Christopher 'Critter' Antonucci Christopher 'Critter' Antonucci (id:1277307)

艾伦·比尔纳 Aaron Beelner (id:1228255)

朱万达斯·坎迪斯 Jwaundace Candece (id:1214914)

肯德里克·克罗斯 Kendrick Cross (id:1212172)

本·科尼什 Ben Cornish (id:1330196)

艾希礼·勒孔特·坎贝尔 Ashley LeConte Campbell (id:1369573)

莉迪亚·波尔图 Lidia Porto (id:1388663)

马森·林茨 Macsen Lintz (id:1347810)

宝娃 Bow Wow (id:1031977)

海瑟·洛克莱尔 Heather Locklear (id:1027837)

迈克·泰森 Mike Tyson (id:1009368)

雷吉娜·赫尔 Regina Hall (id:1036471)

浩克·霍根 Hulk Hogan (id:1022668)

莱斯利·尼尔森 Leslie Nielsen (id:1054223)

蒙蒂·考克斯 Monty Cox (id:1450285)

◎简 介

戴恩·桑德斯(西蒙·雷克斯 Simon Rex 饰)和乔迪(阿什丽·提斯代尔 Ashley Tisdale 饰)是一对快乐的新婚夫妇,这一天他们意外接到一通电话。此前戴恩的哥哥查理遭遇灵异事件,惨死家中,而他的三个孩子凯西(Gracie Whitton 饰)、莉莉(Ava Kolker 饰)和尚在襁褓中的艾登(Dylan Morris 饰)则宣告失踪。三个形同野人的孩子被人偶然发现于某个林中小屋之中,经过一番争执和讨论,戴恩最终令妻子同意收养三个小外甥。突然增加的人口,令戴恩不得不更加努力赚钱养家。

可是在他们的新家内,接二连三发生了各种诡异事件,举止反常的小姐妹花,来自另一个世界的神秘访客,桑德斯一家开启了爆笑而恐怖的大门……

◎获奖情况 (共2项)

第34届金酸莓奖 (2014)

最差银幕组合(提名)

最差前传、重拍、恶搞及续集电影(提名)

  1. 合集文件列表:

  2. 1.Scary.Movie.2.2001.BluRay.1080p.DTS-HR.5.1.x265.10bit-ALT.mkv 7.08GB

  3. 2.Scary.Movie.3.2003.BluRay.1080p.DTS-HD.MA.5.1.x265.10bit-ALT.mkv 6.89GB

  4. 3.Scary.Movie.4.2006.BluRay.1080p.DTS-HD.MA.5.1.x265.10bit-ALT.mkv 7.26GB

  5. 4.Scary.Movie.5.2013.BluRay.1080p.DTS-HD.MA.5.1.x265.10bit-ALT.mkv 6.36GB

  6. 5.Scary.Movie.2000.BluRay.1080p.DTS-HD.MA.5.1.x265.10bit-ALT.mkv 4.63GB


复制代码

  1. ##### MediaInfo ######

  2. General

  3. Unique ID : 213198200400758622382592122408200992062 (0xA0647AD5C10EAAE6987942DB5256753E)

  4. Complete name : Scary.Movie.2.2001.BluRay.1080p.DTS-HR.5.1.x265.10bit-BeiTai.mkv

  5. Format : Matroska

  6. Format version : Version 4

  7. File size : 7.08 GiB

  8. Duration : 1 h 22 min

  9. Overall bit rate : 12.3 Mb/s

  10. Encoded date : UTC 2019-12-10 03:38:16

  11. Writing application : mkvmerge v41.0.0 ('Smarra') 64-bit

  12. Writing library : libebml v1.3.9 + libmatroska v1.5.2

  13. Video

  14. ID : 1

  15. Format : HEVC

  16. Format/Info : High Efficiency Video Coding

  17. Format profile : Main [email protected]@High

  18. HDR format : SMPTE ST 2086

  19. Codec ID : V_MPEGH/ISO/HEVC

  20. Duration : 1 h 22 min

  21. Bit rate : 10.2 Mb/s

  22. Width : 1 920 pixels

  23. Height : 1 080 pixels

  24. Display aspect ratio : 16:9

  25. Frame rate mode : Constant

  26. Frame rate : 23.976 (24000/1001/53354) FPS

  27. Color space : YUV

  28. Chroma subsampling : 4:2:0

  29. Bit depth : 10 bits

  30. Bits/(Pixel*Frame) : 0.205

  31. Stream size : 5.88 GiB (83%)

  32. Title : HEVC, [email protected]@High, 24/1.001 fps @ 10189 kbps

  33. Writing library : x265 3.0_Au+4-dcbec33bfb0f:[Windows][GCC 8.2.1][64 bit] 10bit

  34. Encoding settings : cpuid=533541111039 / frame-threads=4 / numa-pools=16 / wpp / pmode / pme / no-psnr / no-ssim / log-level=2 / input-csp=1 / input-res=1920x1080 / interlace=0 / total-frames=118848 / level-idc=51 / high-tier=1 / uhd-bd=0 / ref=5 / no-allow-non-conformance / repeat-headers / annexb / no-aud / no-hrd / info / hash=0 / no-temporal-layers / no-open-gop / min-keyint=24 / keyint=240 / gop-lookahead=0 / bframes=6 / b-adapt=2 / b-pyramid / bframe-bias=0 / rc-lookahead=40 / lookahead-slices=0 / NTMzNTQ=uuDQuD2mJt9fsCf / scenecut=40 / radl=0 / no-splice / no-intra-refresh / ctu=32 / min-cu-size=8 / no-rect / no-amp / max-tu-size=32 / tu-inter-depth=3 / tu-intra-depth=3 / limit-tu=4 / rdoq-level=2 / dynamic-rd=0.00 / no-ssim-rd / signhide / no-tskip / nr-intra=0 / nr-inter=0 / no-constrained-intra / no-strong-intra-smoothing / max-merge=4 / limit-refs=1 / limit-modes / me=3 / subme=4 / merange=25 / temporal-mvp / weightp / weightb / no-analyze-src-pics / deblock=-3:-3 / no-sao / no-sao-non-deblock / rd=6 / no-early-skip / rskip / no-fast-intra / no-tskip-fast / no-cu-lossless / b-intra / no-splitrd-skip / rdpenalty=0 / psy-rd=2.00 / psy-rdoq=1.00 / no-rd-refine / no-lossless / cbqpoffs=0 / crqpoffs=0 / rc=crf / crf=18.5 / qcomp=0.65 / qpstep=4 / stats-write=0 / stats-read=0 / vbv-maxrate=80000 / vbv-bufsize=80000 / vbv-init=0.9 / crf-max=0.0 / crf-min=0.0 / ipratio=1.40 / pbratio=1.30 / aq-mode=2 / aq-strength=0.85 / cutree / zone-count=0 / no-strict-cbr / qg-size=32 / no-rc-grain / qpmax=69 / qpmin=0 / no-const-vbv / sar=1 / overscan=0 / videoformat=5 / range=0 / colorprim=1 / transfer=1 / colormatrix=1 / chromaloc=0 / display-window=0 / master-display=G(15000,30000)B(7500,3000)R(32000,16500)WP(15635,16450)L(10000000,1) / max-cll=1000,1 / min-luma=0 / max-luma=1023 / log2-max-poc-lsb=8 / vui-timing-info / vui-hrd-info / slices=1 / no-opt-qp-pps / no-opt-ref-list-length-pps / no-multi-pass-opt-rps / scenecut-bias=0.05 / no-opt-cu-delta-qp / no-aq-motion / hdr / no-hdr-opt / no-dhdr10-opt / no-idr-recovery-sei / analysis-reuse-level=5 / scale-factor=0 / refine-intra=0 / refine-inter=0 / refine-mv=0 / refine-ctu-distortion=0 / no-limit-sao / ctu-info=0 / no-lowpass-dct / refine-analysis-type=0 / copy-pic=1 / max-ausize-factor=1.0 / no-dynamic-refine / no-single-sei / no-hevc-aq / qp-adaptation-range=1.00

  35. Language : English

  36. Default : Yes

  37. Forced : No

  38. Color range : Limited

  39. Color primaries : BT.709

  40. Transfer characteristics : BT.709

  41. Matrix coefficients : BT.709

  42. Mastering display color primaries : BT.709

  43. Mastering display luminance : min: 0.0001 cd/m2, max: 1000 cd/m2

  44. Maximum Content Light Level : 1000 cd/m2

  45. Maximum Frame-Average Light Level : 1 cd/m2

  46. Audio

  47. ID : 2

  48. Format : DTS XBR

  49. Format/Info : Digital Theater Systems

  50. Commercial name : DTS-HD High Resolution Audio

  51. Codec ID : A_DTS

  52. Duration : 1 h 22 min

  53. Bit rate mode : Constant

  54. Bit rate : 2 046 kb/s

  55. Channel(s) : 6 channels

  56. Channel layout : C L R Ls Rs LFE

  57. Sampling rate : 48.0 kHz

  58. Frame rate : 93.750 FPS (512 SPF)

  59. Bit depth : 24 bits

  60. Compression mode : Lossy

  61. Stream size : 1.18 GiB (17%)

  62. Title : English DTS Hi-Res 5.1 @ 2046 kbps

  63. Language : English

  64. Default : Yes

  65. Forced : No

  66. Text #1

  67. ID : 3

  68. Format : PGS

  69. Codec ID : S_HDMV/PGS

  70. Codec ID/Info : Picture based subtitle format used on BDs/HD-DVDs

  71. Duration : 1 h 14 min

  72. Bit rate : 21.5 kb/s

  73. Count of elements : 1545

  74. Stream size : 11.4 MiB (0%)

  75. Title : Chs/SUP 简体

  76. Language : Chinese

  77. Default : Yes

  78. Forced : No

  79. Text #2

  80. ID : 4

  81. Format : PGS

  82. Codec ID : S_HDMV/PGS

  83. Codec ID/Info : Picture based subtitle format used on BDs/HD-DVDs

  84. Duration : 1 h 14 min

  85. Bit rate : 22.2 kb/s

  86. Count of elements : 1545

  87. Stream size : 11.8 MiB (0%)

  88. Title : Cht/SUP 繁体

  89. Language : Chinese

  90. Default : No

  91. Forced : No

  92. Menu

  93. 00:00:00.000 : en:第 01 章

  94. 00:02:07.210 : en:第 02 章

  95. 00:07:41.628 : en:第 03 章

  96. 00:15:12.745 : en:第 04 章

  97. 00:20:29.186 : en:第 05 章

  98. 00:23:18.355 : en:第 06 章

  99. 00:28:19.323 : en:第 07 章

  100. 00:34:07.963 : en:第 08 章

  101. 00:39:03.091 : en:第 09 章

  102. 00:44:40.803 : en:第 10 章

  103. 00:48:35.704 : en:第 11 章

  104. 00:51:09.149 : en:第 12 章

  105. 00:56:06.780 : en:第 13 章

  106. 00:59:39.075 : en:第 14 章

  107. 01:01:05.412 : en:第 15 章

  108. 01:06:31.613 : en:第 16 章


复制代码



文件下载


除非特别注明,本文『惊声尖笑[共5部合集][简繁字幕].Scary.Movie.1-5.2000-2013.BluRay.1080p.DTS-HD.MA.5.1.x265.10bit-ALT 32.22GB』来源于互联网机器人自动抓取,非本站原创。 浮游电影网不对本文拥有版权,如有侵犯,请联系邮箱:fuyouu#yandex.com[#换成@]投诉。我们会在15个工作日内删除。 但烦请转载时请标明出处:“本文转载于『浮游电影网』,原文地址:https://www.fuyouu.com/21696.html

评论吧骚年!

发表你的见解   

昵称*

E-mail*(建议输入,以便收到博主回复的提示邮件)

验证码*

您可以使用eMule或eMule Mod(Windows)、aMule(Win、Linux、Mac)等软件下载eD2k链接。。
eMule收藏集(.emulecollection)文件是您选中的所有链接的列表文件。eMule可以直接下载它们。
按住SHIFT键选择可以选中多个选择框。
可用文件名和大小选择器来选择文件。
文件名选择器帮您根据文件名称或后缀来选择文件。不分大小写。
符号使用:
和:空格( )、+
不包含:-
或:|
转义:一对英文引号("");
匹配开头:^
匹配结尾:$
例如:
选中所有名称中包含有“eMule”或“0.49c”字眼,但不包含有“exe”字眼的:emule|0.49c -exe
选中所有名称的开头是“eMule”,结尾是“0.49c”的:^emule 0.49c$
选中所有名称中带有“eMule 0.49c”的(必须是“eMule 0.49c”,中间没有别的字符,不能是“eMule fake 0.49c”),需要转义:"emule 0.49c"
大小选择器帮您根据文件大小选择文件。