当前位置: 首页 >> 欧美电影 >> 套装[简繁字幕].The.Outfit.2022.1080p.BluRay.DTS-HD.MA.5.1.x265-10bit-ENTHD 7.35GB >> 正文

套装[简繁字幕].The.Outfit.2022.1080p.BluRay.DTS-HD.MA.5.1.x265-10bit-ENTHD 7.35GB

2022年04月24日 23:01:29     电影发布:来源于网络     电影分类:欧美电影     评论(0)    

套装[简繁字幕].The.Outfit.2022.1080p.BluRay.DTS HD.MA.5.1.x265 10bit ENTHD 7.35GB  欧美电影  第1张

◎译 名 套装 / 誓不低头

◎片 名 The Outfit

◎年 代 2022

◎产 地 美国

◎类 别 剧情 / 惊悚 / 犯罪

◎语 言 英语

◎上映日期 2022-02-14(柏林电影节) / 2022-03-18(美国)

◎IMDb链接 https://www.imdb.com/title/tt14114802/

◎豆瓣评分 7.9/10 (17207人评价)

◎豆瓣链接 https://movie.douban.com/subject/35372415/

◎片 长 106分钟

◎导 演 格拉汉姆·摩尔 Graham Moore (id:1341603)

◎编 剧 乔纳森·麦克莱恩 Johnathan McClain (id:1322394)

格拉汉姆·摩尔 Graham Moore (id:1341603)

◎演 员 马克·里朗斯 Mark Rylance (id:1014239)

佐伊·达奇 Zoey Deutch (id:1327045)

迪伦·奥布莱恩 Dylan O'Brien (id:1314963)

强尼·弗林 Johnny Flynn (id:1206041)

妮基·阿姆卡-伯德 Nikki Amuka-Bird (id:1332073)

西蒙·拉塞尔·比尔 Simon Russell Beale (id:1145977)

阿伦·梅迪扎德 Alan Mehdizadeh (id:1469210)

布赖恩·罗杰 Brian Rodger (id:1458087)

本·布朗宁 Ben Browning (id:1453591)

◎简 介

故事讲述英国裁缝 伦纳德(马克·里朗斯 饰)曾在世界闻名的伦敦萨维尔街做西服,但在经历了一场个人悲剧后,他来到了芝加哥,在镇上一个简陋的地方经营着一家小裁缝店,为周围唯一能负担得起的人制作漂亮衣服:一个邪恶的黑帮家庭

  1. ##### MediaInfo ######

  2. General

  3. Unique ID : 70872806872850383328041558192991533598 (0x35519B295D44CF5321829A97AE447A1E)

  4. Complete name : The.Outfit.2022.1080p.BluRay.DTS-HD.MA.5.1.x265-10bit-HDS.mkv

  5. Format : Matroska

  6. Format version : Version 4

  7. File size : 7.35 GiB

  8. Duration : 1 h 44 min

  9. Overall bit rate mode : Variable

  10. Overall bit rate : 10.0 Mb/s

  11. Movie name : The Outfit 2022 1080p BluRay DTS-HD MA 5.1 x265-10bit-HDS

  12. Encoded date : UTC 2022-04-24 04:11:08

  13. Writing application : mkvmerge v38.0.0 ('The Silent Type') 64-bit

  14. Writing library : libebml v1.3.9 + libmatroska v1.5.2

  15. Video

  16. ID : 1

  17. Format : HEVC

  18. Format/Info : High Efficiency Video Coding

  19. Format profile : Main [email protected]@High

  20. Codec ID : V_MPEGH/ISO/HEVC

  21. Duration : 1 h 44 min

  22. Bit rate : 6 551 kb/s

  23. Width : 1 920 pixels

  24. Height : 960 pixels

  25. Display aspect ratio : 2.000

  26. Frame rate mode : Constant

  27. Frame rate : 23.976 (24000/1001/53354) FPS

  28. Color space : YUV

  29. Chroma subsampling : 4:2:0

  30. Bit depth : 10 bits

  31. Bits/(Pixel*Frame) : 0.148

  32. Stream size : 4.80 GiB (65%)

  33. Title : [email protected]

  34. Writing library : x265 - H.265/HEVC codec

  35. Default : Yes

  36. Forced : No

  37. Audio

  38. ID : 2

  39. Format : DTS XLL

  40. Format/Info : Digital Theater Systems

  41. Commercial name : DTS-HD Master Audio

  42. Codec ID : A_DTS

  43. Duration : 1 h 44 min

  44. Bit rate mode : Variable

  45. Bit rate : 3 357 kb/s

  46. Channel(s) : 6 channels

  47. Channel layout : C L R Ls Rs LFE

  48. Sampling rate : 48.0 kHz

  49. Frame rate : 93.750 FPS (512 SPF)

  50. Bit depth : 24 bits

  51. Compression mode : Lossless

  52. Stream size : 2.46 GiB (33%)

  53. Title : English

  54. Language : English

  55. Default : Yes

  56. Forced : No

  57. Text #1

  58. ID : 3

  59. Format : PGS

  60. Muxing mode : zlib

  61. Codec ID : S_HDMV/PGS

  62. Codec ID/Info : Picture based subtitle format used on BDs/HD-DVDs

  63. Duration : 1 h 39 min

  64. Bit rate : 45.1 kb/s

  65. Count of elements : 2722

  66. Stream size : 32.0 MiB (0%)

  67. Title : CHS

  68. Language : Chinese

  69. Default : Yes

  70. Forced : No

  71. Text #2

  72. ID : 4

  73. Format : PGS

  74. Muxing mode : zlib

  75. Codec ID : S_HDMV/PGS

  76. Codec ID/Info : Picture based subtitle format used on BDs/HD-DVDs

  77. Duration : 1 h 39 min

  78. Bit rate : 45.7 kb/s

  79. Count of elements : 2722

  80. Stream size : 32.4 MiB (0%)

  81. Title : CHT

  82. Language : Chinese

  83. Default : No

  84. Forced : No

  85. Text #3

  86. ID : 5

  87. Format : PGS

  88. Muxing mode : zlib

  89. Codec ID : S_HDMV/PGS

  90. Codec ID/Info : Picture based subtitle format used on BDs/HD-DVDs

  91. Duration : 1 h 39 min

  92. Bit rate : 45.8 kb/s

  93. Count of elements : 2722

  94. Stream size : 32.4 MiB (0%)

  95. Title : CHS&ENG

  96. Language : Chinese

  97. Default : No

  98. Forced : No

  99. Text #4

  100. ID : 6

  101. Format : PGS

  102. Muxing mode : zlib

  103. Codec ID : S_HDMV/PGS

  104. Codec ID/Info : Picture based subtitle format used on BDs/HD-DVDs

  105. Duration : 1 h 39 min

  106. Bit rate : 46.4 kb/s

  107. Count of elements : 2722

  108. Stream size : 32.9 MiB (0%)

  109. Title : CHT&ENG

  110. Language : Chinese

  111. Default : No

  112. Forced : No

  113. Text #5

  114. ID : 7

  115. Format : PGS

  116. Muxing mode : zlib

  117. Codec ID : S_HDMV/PGS

  118. Codec ID/Info : Picture based subtitle format used on BDs/HD-NewHD

复制代码



文件下载


除非特别注明,本文『套装[简繁字幕].The.Outfit.2022.1080p.BluRay.DTS-HD.MA.5.1.x265-10bit-ENTHD 7.35GB』来源于互联网机器人自动抓取,非本站原创。 浮游电影网不对本文拥有版权,如有侵犯,请联系邮箱:fuyouu#yandex.com[#换成@]投诉。我们会在15个工作日内删除。 但烦请转载时请标明出处:“本文转载于『浮游电影网』,原文地址:https://www.fuyouu.com/21694.html

评论吧骚年!

发表你的见解   

昵称*

E-mail*(建议输入,以便收到博主回复的提示邮件)

验证码*

您可以使用eMule或eMule Mod(Windows)、aMule(Win、Linux、Mac)等软件下载eD2k链接。。
eMule收藏集(.emulecollection)文件是您选中的所有链接的列表文件。eMule可以直接下载它们。
按住SHIFT键选择可以选中多个选择框。
可用文件名和大小选择器来选择文件。
文件名选择器帮您根据文件名称或后缀来选择文件。不分大小写。
符号使用:
和:空格( )、+
不包含:-
或:|
转义:一对英文引号("");
匹配开头:^
匹配结尾:$
例如:
选中所有名称中包含有“eMule”或“0.49c”字眼,但不包含有“exe”字眼的:emule|0.49c -exe
选中所有名称的开头是“eMule”,结尾是“0.49c”的:^emule 0.49c$
选中所有名称中带有“eMule 0.49c”的(必须是“eMule 0.49c”,中间没有别的字符,不能是“eMule fake 0.49c”),需要转义:"emule 0.49c"
大小选择器帮您根据文件大小选择文件。