当前位置: 首页 >> 欧美电影 >> 耶稣受难记[中文字幕].The.Passion.of.the.Christ.2004.ARAMAIC.1080p.BluRay.REMUX.AVC.DTS-HD.MA.5.1-FGT 24.46GB >> 正文

耶稣受难记[中文字幕].The.Passion.of.the.Christ.2004.ARAMAIC.1080p.BluRay.REMUX.AVC.DTS-HD.MA.5.1-FGT 24.46GB

2022年04月24日 22:58:32     电影发布:来源于网络     电影分类:欧美电影     评论(0)    

耶稣受难记[中文字幕].The.Passion.of.the.Christ.2004.ARAMAIC.1080p.BluRay.REMUX.AVC.DTS HD.MA.5.1 FGT 24.46GB  欧美电影  第1张

◎译 名 耶稣受难记 / 受难曲(港) / 受难记:最后的激情(台) / 受难 / 基督受难记

◎片 名 The Passion of the Christ

◎年 代 2004

◎产 地 美国

◎类 别 剧情

◎语 言 亚拉姆语 / 拉丁语 / 希伯来语

◎上映日期 2004-03-19(中国大陆) / 2004-02-25(美国)

◎IMDb链接 https://www.imdb.com/title/tt0335345/

◎豆瓣评分 7.9/10 (32818人评价)

◎豆瓣链接 https://movie.douban.com/subject/1308750/

◎片 长 127分钟

◎导 演 梅尔·吉布森 Mel Gibson (id:1054530)

◎编 剧 本尼迪克特·菲茨杰拉德 Benedict Fitzgerald (id:1032893)

梅尔·吉布森 Mel Gibson (id:1054530)

◎演 员 吉姆·卡维泽 Jim Caviezel (id:1027807)

玛雅·摩根斯特恩 Maia Morgenstern (id:1045232)

克里斯托·日夫科夫 Christo Jivkov (id:1168346)

弗朗西斯科·德·维托 Francesco De Vito (id:1366045)

莫妮卡·贝鲁奇 Monica Bellucci (id:1025156)

马帝亚·史巴吉亚 Mattia Sbragia (id:1141058)

托尼·贝尔多瑞利 Toni Bertorelli (id:1050815)

卢卡·莱奥内罗 Luca Lionello (id:1016834)

克里斯多·夏帕夫 Hristo Shopov (id:1147171)

克劳迪亚·杰里尼 Claudia Gerini (id:1036878)

Fabio Sartor Fabio Sartor (id:1140684)

亚历山德·明瑟 Aleksander Mincer (id:1119608)

Lucio Allocca Lucio Allocca (id:1060663)

Lino Salemme Lino Salemme (id:1325844)

弗朗切斯科·德罗萨 Francesco De Rosa (id:1083090)

安吉洛·迪洛雷塔 Angelo Di Loreta (id:1087425)

费德里科·帕西菲奇 Federico Pacifici (id:1126357)

Andrea Coppola Andrea Coppola (id:1068942)

罗穆亚尔德·安杰·克洛斯 Romuald Andrzej Klos (id:1104857)

Luca De Dominicis Luca De Dominicis (id:1214184)

阿贝尔·贾夫里 Abel Jafri (id:1369176)

赛尔乔·鲁比尼 Sergio Rubini (id:1037164)

Francesco Cabras Francesco Cabras (id:1375473)

萨布里娜·因帕恰托雷 Sabrina Impacciatore (id:1000945)

贾勒斯·J·默茨 Jarreth J. Merz (id:1119638)

达维德·马洛塔 Davide Marotta (id:1419272)

Rosalinda Celentano Rosalinda Celentano (id:1067990)

(id:1365260)

梅尔·吉布森 Mel Gibson (id:1054530)

斯蒂芬·麦克维蒂 Stephen McEveety (id:1291562)

布鲁斯·戴维 Bruce Davey (id:1281858)

恩佐·西斯蒂 Enzo Sisti (id:1027091)

约翰·戴布尼 John Debney (id:1025369)

凯莱布·德夏奈尔 Caleb Deschanel (id:1049841)

约翰·赖特 John Wright (id:1301301)

沙拉·鲁宾 Shaila Rubin (id:1296266)

Shaila Rubin Shaila Rubin (id:1148494)

娜扎雷诺皮亚纳 Nazzareno Piana (id:1294477)

弗朗西斯科·弗里格里 Francesco Frigeri (id:1284242)

毛里齐奥·米莱诺蒂 Maurizio Millenotti (id:1021943)

Mario Michisanti Mario Michisanti (id:1291991)

基斯·范德兰 Keith VanderLaan (id:1299886)

Gianna Viola Gianna Viola (id:1300110)

Nathan Franson (id:1225722)

Michael O'Brien Michael O'Brien (id:1302446)

文森佐·马斯特朗托尼奥 Vincenzo Mastrantonio (id:1291245)

格雷格·卡农 Greg Cannom (id:1280002)

玛丽亚·特雷莎·科里多尼 Maria Teresa Corridoni (id:1281307)

克里斯蒂安·汀斯利 Christien Tinsley (id:1299294)

Glen Eisner Glen Eisner (id:1283079)

雷纳托·弗朗索拉 Renato Francola (id:1284085)

布莱恩·西普 Brian Sipe (id:1297726)

Brandon Ellison Brandon Ellison (id:1179759)

Desideria Corridoni Desideria Corridoni (id:1281311)

达米安·费舍尔 Damian Fisher (id:1089232)

毛里齐奥·纳迪 Maurizio Nardi (id:1136655)

J·M·洛根 J.M. Logan (id:1025708)

哈维·劳里 Harvey Lowry (id:1008136)

塞尔吉奥·埃尔科莱西 Sergio Ercolessi (id:1055070)

芭芭拉·帕斯特罗维奇 Barbara Pastrovich (id:1132226)

Ted Rae Ted Rae (id:1295142)

John Nelson John Nelson (id:1135189)

J·M·洛根 J.M. Logan (id:1025708)

托马斯·坦嫩伯格 Thomas Tannenberger (id:1298908)

马克·萨利文 Mark Sullivan (id:1298630)

Laurel Klick Laurel Klick (id:1288711)

David B. Sharp David B. Sharp (id:1297338)

Bret Mixon Bret Mixon (id:1052332)

Ted Rae Ted Rae (id:1295142)

Anthony 'Max' Ivins Anthony 'Max' Ivins (id:1287451)

帕特里克·克兰斯 Patrick Clancey (id:1071903)

Alpheus Underhill Alpheus Underhill (id:1160319)

Linda Avitabile Linda Avitabile (id:1307442)

埃弗雷特·伯勒尔 Everett Burrell (id:1012845)

Paolo Verrucci Paolo Verrucci (id:1206476)

Chris Zapara Chris Zapara (id:1301884)

Tefft Smith Tefft Smith (id:1024089)

Tracy Thomas Tracy Thomas (id:1024601)

Brian Battles Brian Battles (id:1278083)

基斯·范德兰 Keith VanderLaan (id:1299886)

莱斯·伯恩斯汀 Les Bernstien (id:1278498)

◎简 介

那是一个遥远而又让人永世难忘的时代,一位圣者将他的名字、他的精神永远镌刻在历史的丰碑之上。备受世人爱戴的上帝之子耶稣(詹姆斯·帕特里克·卡维泽 James Patrick Caviezel 饰)为生活在穷苦和磨难中的人们带去了希望和喜悦,与此同时他的存在也触犯了教廷和统 治者的利益。他拒绝着魔鬼的引诱,而门徒犹大(卢卡·莱奥内罗 Luca Lionello 饰)则抵抗不出金钱的魅力,他为此出卖了耶稣,其丑态永久留在了“最后的晚餐”之上。在此之后,耶稣被捕,当局者为他戴上荆棘做的王冠,命他背上沉重的十字架,更用带着铁刺的鞭子抽打圣人的肌肤。耶稣痛苦呻吟着,决绝地忍受当下的一切。“仁慈之父,他们什么都不知道。”

作为圣人,作为救世主,这是一条必须淌血走过的试炼之路……

◎获奖情况 (共3项)

第77届奥斯卡金像奖 (2005)

最佳摄影(提名)

└──凯莱布·德夏奈尔 (id:1049841)

最佳化妆(提名)

最佳原创配乐(提名)

└──约翰·戴布尼 (id:1025369)

  1. Video

  2. ID : 1

  3. ID in the original source medium : 4113 (0x1011)

  4. Format : AVC

  5. Format/Info : Advanced Video Codec

  6. Format profile : [email protected]

  7. Format settings : CABAC / 4 Ref Frames

  8. Format settings, CABAC : Yes

  9. Format settings, Reference frames : 4 frames

  10. Codec ID : V_MPEG4/ISO/AVC

  11. Duration : 2 h 6 min

  12. Bit rate mode : Variable

  13. Bit rate : 22.4 Mb/s

  14. Maximum bit rate : 35.5 Mb/s

  15. Width : 1 920 pixels

  16. Height : 1 080 pixels

  17. Display aspect ratio : 16:9

  18. Frame rate mode : Constant

  19. Frame rate : 23.976 (24000/1001/53354) FPS

  20. Color space : YUV

  21. Chroma subsampling : 4:2:0

  22. Bit depth : 8 bits

  23. Scan type : Progressive

  24. Bits/(Pixel*Frame) : 0.450

  25. Stream size : 19.8 GiB (81%)

  26. Language : English

  27. Default : No

  28. Forced : No

  29. Color range : Limited

  30. Color primaries : BT.709

  31. Transfer characteristics : BT.709

  32. Matrix coefficients : BT.709

  33. Original source medium : Blu-ray


  34. Audio #1

  35. ID : 2

  36. ID in the original source medium : 4352 (0x1100)

  37. Format : DTS XLL

  38. Format/Info : Digital Theater Systems

  39. Commercial name : DTS-HD Master Audio

  40. Codec ID : A_DTS

  41. Duration : 2 h 6 min

  42. Bit rate mode : Variable

  43. Bit rate : 3 959 kb/s

  44. Channel(s) : 6 channels

  45. Channel layout : C L R Ls Rs LFE

  46. Sampling rate : 48.0 kHz

  47. Frame rate : 93.750 FPS (512 SPF)

  48. Bit depth : 24 bits

  49. Compression mode : Lossless

  50. Stream size : 3.50 GiB (14%)

  51. Title : Surround 5.1

  52. Language : arc

  53. Default : Yes

  54. Forced : No

  55. Original source medium : Blu-ray


  56. Audio #2

  57. ID : 3

  58. ID in the original source medium : 4353 (0x1101)

  59. Format : AC-3

  60. Format/Info : Audio Coding 3

  61. Commercial name : Dolby Digital

  62. Codec ID : A_AC3

  63. Duration : 2 h 6 min

  64. Bit rate mode : Constant

  65. Bit rate : 224 kb/s

  66. Channel(s) : 2 channels

  67. Channel layout : L R

  68. Sampling rate : 48.0 kHz

  69. Frame rate : 31.250 FPS (1536 SPF)

  70. Compression mode : Lossy

  71. Stream size : 203 MiB (1%)

  72. Title : DD 2.0

  73. Language : English

  74. Service kind : Complete Main

  75. Default : No

  76. Forced : No

  77. Original source medium : Blu-ray


  78. Audio #3

  79. ID : 4

  80. ID in the original source medium : 4354 (0x1102)

  81. Format : AC-3

  82. Format/Info : Audio Coding 3

  83. Commercial name : Dolby Digital

  84. Codec ID : A_AC3

  85. Duration : 2 h 6 min

  86. Bit rate mode : Constant

  87. Bit rate : 224 kb/s

  88. Channel(s) : 2 channels

  89. Channel layout : L R

  90. Sampling rate : 48.0 kHz

  91. Frame rate : 31.250 FPS (1536 SPF)

  92. Compression mode : Lossy

  93. Stream size : 203 MiB (1%)

  94. Title : DD 2.0

  95. Language : English

  96. Service kind : Complete Main

  97. Default : No

  98. Forced : No

  99. Original source medium : Blu-ray


  100. Audio #4

  101. ID : 5

  102. ID in the original source medium : 4355 (0x1103)

  103. Format : AC-3

  104. Format/Info : Audio Coding 3

  105. Commercial name : Dolby Digital

  106. Codec ID : A_AC3

  107. Duration : 2 h 6 min

  108. Bit rate mode : Constant

  109. Bit rate : 224 kb/s

  110. Channel(s) : 2 channels

  111. Channel layout : L R

  112. Sampling rate : 48.0 kHz

  113. Frame rate : 31.250 FPS (1536 SPF)

  114. Compression mode : Lossy

  115. Stream size : 203 MiB (1%)

  116. Title : DD 2.0

  117. Language : English

  118. Service kind : Complete Main

  119. Default : No

  120. Forced : No

  121. Original source medium : Blu-ray


  122. Audio #5

  123. ID : 6

  124. ID in the original source medium : 4356 (0x1104)

  125. Format : AC-3

  126. Format/Info : Audio Coding 3

  127. Commercial name : Dolby Digital

  128. Codec ID : A_AC3

  129. Duration : 2 h 6 min

  130. Bit rate mode : Constant

  131. Bit rate : 224 kb/s

  132. Channel(s) : 2 channels

  133. Channel layout : L R

  134. Sampling rate : 48.0 kHz

  135. Frame rate : 31.250 FPS (1536 SPF)

  136. Compression mode : Lossy

  137. Stream size : 203 MiB (1%)

  138. Title : DD 2.0

  139. Language : English

  140. Service kind : Complete Main

  141. Default : No

  142. Forced : No

  143. Original source medium : Blu-ray


  144. Audio #6

  145. ID : 7

  146. ID in the original source medium : 4357 (0x1105)

  147. Format : AC-3

  148. Format/Info : Audio Coding 3

  149. Commercial name : Dolby Digital

  150. Codec ID : A_AC3

  151. Duration : 2 h 6 min

  152. Bit rate mode : Constant

  153. Bit rate : 224 kb/s

  154. Channel(s) : 2 channels

  155. Channel layout : L R

  156. Sampling rate : 48.0 kHz

  157. Frame rate : 31.250 FPS (1536 SPF)

  158. Compression mode : Lossy

  159. Stream size : 203 MiB (1%)

  160. Title : DD 2.0

  161. Language : English

  162. Service kind : Complete Main

  163. Default : No

  164. Forced : No

  165. Original source medium : Blu-ray


  166. Text #1

  167. ID : 8

  168. Format : UTF-8

  169. Codec ID : S_TEXT/UTF8

  170. Codec ID/Info : UTF-8 Plain Text

  171. Duration : 1 h 51 min

  172. Bit rate : 17 b/s

  173. Count of elements : 530

  174. Stream size : 13.9 KiB (0%)

  175. Language : English

  176. Default : Yes

  177. Forced : No


  178. Text #2

  179. ID : 9

  180. Format : UTF-8

  181. Codec ID : S_TEXT/UTF8

  182. Codec ID/Info : UTF-8 Plain Text

  183. Duration : 1 h 56 min

  184. Bit rate : 20 b/s

  185. Count of elements : 800

  186. Stream size : 17.6 KiB (0%)

  187. Title : SDH

  188. Language : English

  189. Default : Yes

  190. Forced : No


  191. Text #3

  192. ID : 10

  193. ID in the original source medium : 4608 (0x1200)

  194. Format : PGS

  195. Muxing mode : zlib

  196. Codec ID : S_HDMV/PGS

  197. Codec ID/Info : Picture based subtitle format used on BDs/HD-DVDs

  198. Duration : 1 h 51 min

  199. Bit rate : 10.0 kb/s

  200. Count of elements : 974

  201. Stream size : 8.02 MiB (0%)

  202. Language : English

  203. Default : No

  204. Forced : No

  205. Original source medium : Blu-ray


  206. Text #4

  207. ID : 11

  208. ID in the original source medium : 4609 (0x1201)

  209. Format : PGS

  210. Muxing mode : zlib

  211. Codec ID : S_HDMV/PGS

  212. Codec ID/Info : Picture based subtitle format used on BDs/HD-DVDs

  213. Duration : 1 h 56 min

  214. Bit rate : 14.3 kb/s

  215. Count of elements : 1614

  216. Stream size : 11.9 MiB (0%)

  217. Title : SDH

  218. Language : English

  219. Default : No

  220. Forced : No

  221. Original source medium : Blu-ray


  222. Text #5

  223. ID : 12

  224. ID in the original source medium : 4610 (0x1202)

  225. Format : PGS

  226. Muxing mode : zlib

  227. Codec ID : S_HDMV/PGS

  228. Codec ID/Info : Picture based subtitle format used on BDs/HD-DVDs

  229. Duration : 1 h 59 min

  230. Bit rate : 9 493 b/s

  231. Count of elements : 982

  232. Stream size : 8.11 MiB (0%)

  233. Language : Spanish

  234. Default : No

  235. Forced : No

  236. Original source medium : Blu-ray


  237. Text #6

  238. ID : 13

  239. ID in the original source medium : 4611 (0x1203)

  240. Format : PGS

  241. Muxing mode : zlib

  242. Codec ID : S_HDMV/PGS

  243. Codec ID/Info : Picture based subtitle format used on BDs/HD-DVDs

  244. Duration : 1 h 59 min

  245. Bit rate : 9 125 b/s

  246. Count of elements : 982

  247. Stream size : 7.80 MiB (0%)

  248. Language : Portuguese

  249. Default : No

  250. Forced : No

  251. Original source medium : Blu-ray


  252. Text #7

  253. ID : 14

  254. ID in the original source medium : 4612 (0x1204)

  255. Format : PGS

  256. Muxing mode : zlib

  257. Codec ID : S_HDMV/PGS

  258. Codec ID/Info : Picture based subtitle format used on BDs/HD-DVDs

  259. Duration : 1 h 59 min

  260. Bit rate : 8 235 b/s

  261. Count of elements : 982

  262. Stream size : 7.04 MiB (0%)

  263. Language : Chinese

  264. Default : No

  265. Forced : No

  266. Original source medium : Blu-ray


  267. Text #8

  268. ID : 15

  269. ID in the original source medium : 4613 (0x1205)

  270. Format : PGS

  271. Muxing mode : zlib

  272. Codec ID : S_HDMV/PGS

  273. Codec ID/Info : Picture based subtitle format used on BDs/HD-DVDs

  274. Duration : 1 h 59 min

  275. Bit rate : 6 686 b/s

  276. Count of elements : 996

  277. Stream size : 5.71 MiB (0%)

  278. Language : Korean

  279. Default : No

  280. Forced : No

  281. Original source medium : Blu-ray


  282. Text #9

  283. ID : 16

  284. ID in the original source medium : 4614 (0x1206)

  285. Format : PGS

  286. Muxing mode : zlib

  287. Codec ID : S_HDMV/PGS

  288. Codec ID/Info : Picture based subtitle format used on BDs/HD-DVDs

  289. Duration : 1 h 59 min

  290. Bit rate : 7 689 b/s

  291. Count of elements : 982

  292. Stream size : 6.57 MiB (0%)

  293. Language : Chinese

  294. Default : No

  295. Forced : No

  296. Original source medium : Blu-ray


  297. Text #10

  298. ID : 17

  299. ID in the original source medium : 4615 (0x1207)

  300. Format : PGS

  301. Muxing mode : zlib

  302. Codec ID : S_HDMV/PGS

  303. Codec ID/Info : Picture based subtitle format used on BDs/HD-DVDs

  304. Duration : 1 h 53 min

  305. Bit rate : 12.6 kb/s

  306. Count of elements : 980

  307. Stream size : 10.3 MiB (0%)

  308. Language : Tagalog

  309. Default : No

  310. Forced : No

  311. Original source medium : Blu-ray


  312. Text #11

  313. ID : 18

  314. ID in the original source medium : 4616 (0x1208)

  315. Format : PGS

  316. Muxing mode : zlib

  317. Codec ID : S_HDMV/PGS

  318. Codec ID/Info : Picture based subtitle format used on BDs/HD-DVDs

  319. Duration : 1 h 59 min

  320. Bit rate : 9 620 b/s

  321. Count of elements : 982

  322. Stream size : 8.22 MiB (0%)

  323. Language : Thai

  324. Default : No

  325. Forced : No

  326. Original source medium : Blu-ray


  327. Text #12

  328. ID : 19

  329. ID in the original source medium : 4617 (0x1209)

  330. Format : PGS

  331. Muxing mode : zlib

  332. Codec ID : S_HDMV/PGS

  333. Codec ID/Info : Picture based subtitle format used on BDs/HD-DVDs

  334. Duration : 2 h 4 min

  335. Bit rate : 51.2 kb/s

  336. Count of elements : 3900

  337. Stream size : 45.7 MiB (0%)

  338. Language : Spanish

  339. Default : No

  340. Forced : No

  341. Original source medium : Blu-ray


  342. Text #13

  343. ID : 20

  344. ID in the original source medium : 4618 (0x120A)

  345. Format : PGS

  346. Muxing mode : zlib

  347. Codec ID : S_HDMV/PGS

  348. Codec ID/Info : Picture based subtitle format used on BDs/HD-DVDs

  349. Duration : 2 h 4 min

  350. Bit rate : 51.5 kb/s

  351. Count of elements : 3902

  352. Stream size : 45.9 MiB (0%)

  353. Language : Portuguese

  354. Default : No

  355. Forced : No

  356. Original source medium : Blu-ray


  357. Text #14

  358. ID : 21

  359. ID in the original source medium : 4619 (0x120B)

  360. Format : PGS

  361. Muxing mode : zlib

  362. Codec ID : S_HDMV/PGS

  363. Codec ID/Info : Picture based subtitle format used on BDs/HD-DVDs

  364. Duration : 2 h 4 min

  365. Bit rate : 37.3 kb/s

  366. Count of elements : 3898

  367. Stream size : 33.3 MiB (0%)

  368. Language : Korean

  369. Default : No

  370. Forced : No

  371. Original source medium : Blu-ray


  372. Text #15

  373. ID : 22

  374. ID in the original source medium : 4620 (0x120C)

  375. Format : PGS

  376. Muxing mode : zlib

  377. Codec ID : S_HDMV/PGS

  378. Codec ID/Info : Picture based subtitle format used on BDs/HD-DVDs

  379. Duration : 1 h 59 min

  380. Bit rate : 56.3 kb/s

  381. Count of elements : 3659

  382. Stream size : 48.0 MiB (0%)

  383. Language : Spanish

  384. Default : No

  385. Forced : No

  386. Original source medium : Blu-ray


  387. Text #16

  388. ID : 23

  389. ID in the original source medium : 4621 (0x120D)

  390. Format : PGS

  391. Muxing mode : zlib

  392. Codec ID : S_HDMV/PGS

  393. Codec ID/Info : Picture based subtitle format used on BDs/HD-DVDs

  394. Duration : 1 h 59 min

  395. Bit rate : 55.3 kb/s

  396. Count of elements : 3659

  397. Stream size : 47.2 MiB (0%)

  398. Language : Portuguese

  399. Default : No

  400. Forced : No

  401. Original source medium : Blu-ray


  402. Text #17

  403. ID : 24

  404. ID in the original source medium : 4622 (0x120E)

  405. Format : PGS

  406. Muxing mode : zlib

  407. Codec ID : S_HDMV/PGS

  408. Codec ID/Info : Picture based subtitle format used on BDs/HD-DVDs

  409. Duration : 1 h 59 min

  410. Bit rate : 46.4 kb/s

  411. Count of elements : 3659

  412. Stream size : 39.6 MiB (0%)

  413. Language : Korean

  414. Default : No

  415. Forced : No

  416. Original source medium : Blu-ray


  417. Text #18

  418. ID : 25

  419. ID in the original source medium : 4623 (0x120F)

  420. Format : PGS

  421. Muxing mode : zlib

  422. Codec ID : S_HDMV/PGS

  423. Codec ID/Info : Picture based subtitle format used on BDs/HD-DVDs

  424. Duration : 2 h 5 min

  425. Bit rate : 69.7 kb/s

  426. Count of elements : 4511

  427. Stream size : 62.5 MiB (0%)

  428. Language : Spanish

  429. Default : No

  430. Forced : No

  431. Original source medium : Blu-ray


  432. Text #19

  433. ID : 26

  434. ID in the original source medium : 4624 (0x1210)

  435. Format : PGS

  436. Muxing mode : zlib

  437. Codec ID : S_HDMV/PGS

  438. Codec ID/Info : Picture based subtitle format used on BDs/HD-DVDs

  439. Duration : 2 h 5 min

  440. Bit rate : 71.4 kb/s

  441. Count of elements : 4509

  442. Stream size : 64.1 MiB (0%)

  443. Language : Portuguese

  444. Default : No

  445. Forced : No

  446. Original source medium : Blu-ray


  447. Text #20

  448. ID : 27

  449. ID in the original source medium : 4625 (0x1211)

  450. Format : PGS

  451. Muxing mode : zlib

  452. Codec ID : S_HDMV/PGS

  453. Codec ID/Info : Picture based subtitle format used on BDs/HD-DVDs

  454. Duration : 2 h 5 min

  455. Bit rate : 53.8 kb/s

  456. Count of elements : 4509

  457. Stream size : 48.3 MiB (0%)

  458. Language : Korean

  459. Default : No

  460. Forced : No

  461. Original source medium : Blu-ray


  462. Text #21

  463. ID : 28

  464. ID in the original source medium : 4626 (0x1212)

  465. Format : PGS

  466. Muxing mode : zlib

  467. Codec ID : S_HDMV/PGS

  468. Codec ID/Info : Picture based subtitle format used on BDs/HD-DVDs

  469. Duration : 2 h 5 min

  470. Bit rate : 33.9 kb/s

  471. Count of elements : 2509

  472. Stream size : 30.5 MiB (0%)

  473. Language : Spanish

  474. Default : No

  475. Forced : No

  476. Original source medium : Blu-ray


  477. Text #22

  478. ID : 29

  479. ID in the original source medium : 4627 (0x1213)

  480. Format : PGS

  481. Muxing mode : zlib

  482. Codec ID : S_HDMV/PGS

  483. Codec ID/Info : Picture based subtitle format used on BDs/HD-DVDs

  484. Duration : 2 h 5 min

  485. Bit rate : 33.7 kb/s

  486. Count of elements : 2509

  487. Stream size : 30.4 MiB (0%)

  488. Language : Portuguese

  489. Default : No

  490. Forced : No

  491. Original source medium : Blu-ray


  492. Text #23

  493. ID : 30

  494. ID in the original source medium : 4628 (0x1214)

  495. Format : PGS

  496. Muxing mode : zlib

  497. Codec ID : S_HDMV/PGS

  498. Codec ID/Info : Picture based subtitle format used on BDs/HD-DVDs

  499. Duration : 2 h 5 min

  500. Bit rate : 23.4 kb/s

  501. Count of elements : 2509

  502. Stream size : 21.1 MiB (0%)

  503. Language : Korean

  504. Default : No

  505. Forced : No

  506. Original source medium : Blu-ray


  507. Menu

  508. 00:00:00.000 : en:Chapter 01

  509. 01:08:12.463 : en:Chapter 02

  510. 01:12:33.515 : en:Chapter 03

  511. 01:15:23.769 : en:Chapter 04

  512. 01:16:37.926 : en:Chapter 05

  513. 01:20:47.551 : en:Chapter 06

  514. 01:23:18.076 : en:Chapter 07

  515. 01:27:28.451 : en:Chapter 08

  516. 01:28:12.954 : en:Chapter 09

  517. 01:34:33.459 : en:Chapter 10

  518. 01:34:52.311 : en:Chapter 11

  519. 01:43:11.602 : en:Chapter 12

  520. 01:55:44.687 : en:Chapter 13

  521. 01:57:22.368 : en:Chapter 14

  522. 01:58:49.956 : en:Chapter 15

复制代码

耶稣受难记[中文字幕].The.Passion.of.the.Christ.2004.ARAMAIC.1080p.BluRay.REMUX.AVC.DTS HD.MA.5.1 FGT 24.46GB  欧美电影  第2张 耶稣受难记[中文字幕].The.Passion.of.the.Christ.2004.ARAMAIC.1080p.BluRay.REMUX.AVC.DTS HD.MA.5.1 FGT 24.46GB  欧美电影  第3张 耶稣受难记[中文字幕].The.Passion.of.the.Christ.2004.ARAMAIC.1080p.BluRay.REMUX.AVC.DTS HD.MA.5.1 FGT 24.46GB  欧美电影  第4张



文件下载


除非特别注明,本文『耶稣受难记[中文字幕].The.Passion.of.the.Christ.2004.ARAMAIC.1080p.BluRay.REMUX.AVC.DTS-HD.MA.5.1-FGT 24.46GB』来源于互联网机器人自动抓取,非本站原创。 浮游电影网不对本文拥有版权,如有侵犯,请联系邮箱:fuyouu#yandex.com[#换成@]投诉。我们会在15个工作日内删除。 但烦请转载时请标明出处:“本文转载于『浮游电影网』,原文地址:https://www.fuyouu.com/21691.html

评论吧骚年!

发表你的见解   

昵称*

E-mail*(建议输入,以便收到博主回复的提示邮件)

验证码*

您可以使用eMule或eMule Mod(Windows)、aMule(Win、Linux、Mac)等软件下载eD2k链接。。
eMule收藏集(.emulecollection)文件是您选中的所有链接的列表文件。eMule可以直接下载它们。
按住SHIFT键选择可以选中多个选择框。
可用文件名和大小选择器来选择文件。
文件名选择器帮您根据文件名称或后缀来选择文件。不分大小写。
符号使用:
和:空格( )、+
不包含:-
或:|
转义:一对英文引号("");
匹配开头:^
匹配结尾:$
例如:
选中所有名称中包含有“eMule”或“0.49c”字眼,但不包含有“exe”字眼的:emule|0.49c -exe
选中所有名称的开头是“eMule”,结尾是“0.49c”的:^emule 0.49c$
选中所有名称中带有“eMule 0.49c”的(必须是“eMule 0.49c”,中间没有别的字符,不能是“eMule fake 0.49c”),需要转义:"emule 0.49c"
大小选择器帮您根据文件大小选择文件。