当前位置: 首页 >> 欧美电影 >> 月球陨落[简繁英字幕].Moonfall.2022.BluRay.1080p.TrueHD.Atmos.7.1.x265.10bit-ALT 9.64GB >> 正文

月球陨落[简繁英字幕].Moonfall.2022.BluRay.1080p.TrueHD.Atmos.7.1.x265.10bit-ALT 9.64GB

2022年04月24日 22:40:17     电影发布:来源于网络     电影分类:欧美电影     评论(0)    

月球陨落[简繁英字幕].Moonfall.2022.BluRay.1080p.TrueHD.Atmos.7.1.x265.10bit ALT 9.64GB  欧美电影  第1张

◎译 名 月球陨落 / 月球坠落

◎片 名 Moonfall

◎年 代 2022

◎产 地 美国 / 中国大陆 / 英国

◎类 别 科幻 / 灾难

◎语 言 英语 / 汉语普通话

◎上映日期 2022-03-25(中国大陆) / 2022-02-04(美国)

◎IMDb链接 https://www.imdb.com/title/tt5834426/

◎豆瓣评分 5.4/10 (61821人评价)

◎豆瓣链接 https://movie.douban.com/subject/26825482/

◎片 长 130分钟

◎导 演 罗兰·艾默里奇 Roland Emmerich (id:1040593)

◎编 剧 罗兰·艾默里奇 Roland Emmerich (id:1040593)

哈洛德·克卢瑟 Harald Kloser (id:1009834)

斯宾塞·科恩 Spenser Cohen (id:1397103)

◎演 员 哈莉·贝瑞 Halle Berry (id:1054415)

帕特里克·威尔森 Patrick Wilson (id:1006919)

约翰·布莱德利 John Bradley (id:1314665)

于文文 Kelly Yu (id:1342252)

迈克尔·佩纳 Michael Pe?a (id:1131634)

唐纳德·萨瑟兰 Donald Sutherland (id:1010556)

查理·普拉默 Charlie Plummer (id:1350090)

艾米·伊库瓦克 Eme Ikwuakor (id:1467718)

卡罗林纳·巴特察克 Carolina Bartczak (id:1332869)

马克西姆·罗伊 Maxim Roy (id:1139679)

斯蒂夫·博加尔特 Stephen Bogaert (id:1350047)

蒂龙·本斯金 Tyrone Benskin (id:1389182)

乔什·克鲁达斯 Josh Cruddas (id:1442635)

凯蒂·布赖尔 Katy Breier (id:1444407)

克里斯·桑迪福德 Chris Sandiford (id:1239842)

兰迪·托马斯 Randy Thomas (id:1149651)

克里什陶·马尔尚 Krista Marchand (id:1452439)

泰勒·艾略特·伯克 Tyler Elliot Burke (id:1335425)

娜塔莉·希波蒂 Nathaly Thibault (id:1345419)

贾·史密斯-约翰逊 Jaa Smith-Johnson (id:1335589)

史蒂文·皮奥维森 Steven Piovesan (id:1348738)

大卫·泰勒 David Tyler (id:1243183)

罗兰·艾默里奇 Roland Emmerich (id:1040593)

王中军 Zhongjun Wang (id:1276036)

王中磊 Zhonglei Wang (id:1276037)

马里奥·达维尼翁 Mario Davignon (id:1281890)

费利克斯·安托万·杜瓦尔 Félix-Antoine Duval (id:1465038)

◎简 介

月球开始偏离轨道,离撞上地球的时间线越来越近,危机时刻,美国国防部提出使用核弹,来让月球重新回到正常轨道。但“假冒博士”(约翰·布莱德利饰)发现,月球内部是空的,显然是有外星文明在操控着月球的轨迹。这个计划逐渐被两位宇航员(帕特里克·威尔森和哈莉·贝瑞饰)接受,但前者因为多年前的一起太空事故,已被美国国家航空航天局开除,关键时刻,已经升为负责人的后者拍板,决定用一台被废弃在博物馆中的航天飞船再次升空飞往月球,借助前者超强的驾驶经验,深入月球地心完成任务。

  1. ##### MediaInfo ######

  2. General

  3. Unique ID : 183459037513822145129843609242588310745 (0x8A04ECE67750491128A6E70681BA6CD9)

  4. Complete name : Moonfall.2022.BluRay.1080p.TrueHD.Atmos.7.1.x265.10bit-ALT.mkv

  5. Format : Matroska

  6. Format version : Version 4

  7. File size : 9.64 GiB

  8. Duration : 2 h 10 min

  9. Overall bit rate mode : Variable

  10. Overall bit rate : 10.6 Mb/s

  11. Encoded date : UTC 2022-04-23 05:24:51

  12. Writing application : mkvmerge v49.0.0 ('Sick Of Losing Soulmates') 64-bit

  13. Writing library : libebml v1.4.0 + libmatroska v1.6.1

  14. Video

  15. ID : 1

  16. Format : HEVC

  17. Format/Info : High Efficiency Video Coding

  18. Format profile : Main [email protected]@High

  19. Codec ID : V_MPEGH/ISO/HEVC

  20. Duration : 2 h 10 min

  21. Bit rate : 4 772 kb/s

  22. Width : 1 920 pixels

  23. Height : 804 pixels

  24. Display aspect ratio : 2.40:1

  25. Frame rate mode : Constant

  26. Frame rate : 23.976 (24000/1001/53354) FPS

  27. Color space : YUV

  28. Chroma subsampling : 4:2:0

  29. Bit depth : 10 bits

  30. Bits/(Pixel*Frame) : 0.129

  31. Stream size : 4.34 GiB (45%)

  32. Title : HEVC, [email protected]@High, 24/1.001 fps @ 4771 kbps

  33. Writing library : x265 3.5+36-1f2c8da77:[Windows][GCC 11.2.0][64 bit] 10bit

  34. Encoding settings : cpuid=533541111039 / frame-threads=4 / numa-pools=16 / wpp / pmode / pme / no-psnr / no-ssim / log-level=2 / input-csp=1 / input-res=1920x804 / interlace=0 / total-frames=187441 / level-idc=51 / high-tier=1 / uhd-bd=0 / ref=5 / no-allow-non-conformance / no-repeat-headers / annexb / no-aud / no-eob / no-eos / no-hrd / info / hash=0 / no-temporal-layers / open-gop / min-keyint=24 / keyint=240 / gop-lookahead=0 / bframes=6 / b-adapt=2 / b-pyramid / bframe-bias=0 / rc-lookahead=40 / lookahead-slices=0 / NTMzNTQ=uuDQuD2mJt9fsCf / scenecut=40 / no-hist-scenecut / radl=0 / no-splice / no-intra-refresh / ctu=32 / min-cu-size=8 / no-rect / no-amp / max-tu-size=32 / tu-inter-depth=3 / tu-intra-depth=3 / limit-tu=4 / rdoq-level=2 / dynamic-rd=0.00 / no-ssim-rd / signhide / no-tskip / nr-intra=0 / nr-inter=0 / no-constrained-intra / no-strong-intra-smoothing / max-merge=4 / limit-refs=1 / limit-modes / me=3 / subme=4 / merange=25 / temporal-mvp / no-frame-dup / no-hme / weightp / weightb / no-analyze-src-pics / deblock=-3:-3 / no-sao / no-sao-non-deblock / rd=6 / selective-sao=0 / no-early-skip / rskip / no-fast-intra / no-tskip-fast / no-cu-lossless / b-intra / no-splitrd-skip / rdpenalty=0 / psy-rd=2.00 / psy-rdoq=1.00 / no-rd-refine / no-lossless / cbqpoffs=0 / crqpoffs=0 / rc=crf / crf=17.0 / qcomp=0.65 / qpstep=4 / stats-write=0 / stats-read=0 / vbv-maxrate=80000 / vbv-bufsize=80000 / vbv-init=0.9 / min-vbv-fullness=50.0 / max-vbv-fullness=80.0 / crf-max=0.0 / crf-min=0.0 / ipratio=1.40 / pbratio=1.30 / aq-mode=2 / aq-strength=0.85 / cutree / zone-count=0 / no-strict-cbr / qg-size=32 / no-rc-grain / qpmax=69 / qpmin=0 / no-const-vbv / sar=1 / overscan=0 / videoformat=5 / range=0 / colorprim=1 / transfer=1 / colormatrix=1 / chromaloc=0 / display-window=0 / cll=0,0 / min-luma=0 / max-luma=1023 / log2-max-poc-lsb=8 / vui-timing-info / vui-hrd-info / slices=1 / no-opt-qp-pps / no-opt-ref-list-length-pps / no-multi-pass-opt-rps / scenecut-bias=0.05 / hist-threshold=0.03 / no-opt-cu-delta-qp / no-aq-motion / no-hdr10 / no-hdr10-opt / no-dhdr10-opt / no-idr-recovery-sei / analysis-reuse-level=0 / analysis-save-reuse-level=0 / analysis-load-reuse-level=0 / scale-factor=0 / refine-intra=0 / refine-inter=0 / refine-mv=1 / refine-ctu-distortion=0 / no-limit-sao / ctu-info=0 / no-lowpass-dct / refine-analysis-type=0 / copy-pic=1 / max-ausize-factor=1.0 / no-dynamic-refine / no-single-sei / no-hevc-aq / no-svt / no-field / qp-adaptation-range=1.00 / scenecut-aware-qp=0conformance-window-offsets / right=0 / bottom=0 / NTMzNTQ= / decoder-max-rate=0 / no-vbv-live-multi-pass

  35. Language : English

  36. Default : Yes

  37. Forced : No

  38. Color range : Limited

  39. Color primaries : BT.709

  40. Transfer characteristics : BT.709

  41. Matrix coefficients : BT.709

  42. Audio #1

  43. ID : 2

  44. Format : MLP FBA 16-ch

  45. Format/Info : Meridian Lossless Packing FBA with 16-channel presentation

  46. Commercial name : Dolby TrueHD with Dolby Atmos

  47. Codec ID : A_TRUEHD

  48. Duration : 2 h 10 min

  49. Bit rate mode : Variable

  50. Bit rate : 4 704 kb/s

  51. Maximum bit rate : 8 046 kb/s

  52. Channel(s) : 8 channels

  53. Channel layout : L R C LFE Ls Rs Lb Rb

  54. Sampling rate : 48.0 kHz

  55. Frame rate : 1 200.000 FPS (40 SPF)

  56. Compression mode : Lossless

  57. Stream size : 4.28 GiB (44%)

  58. Title : English Dolby TrueHD 7.1 (Atmos) @ 5344 kbps

  59. Language : English

  60. Default : Yes

  61. Forced : No

  62. Number of dynamic objects : 11

  63. Bed channel count : 1 channel

  64. Bed channel configuration : LFE

  65. Audio #2

  66. ID : 3

  67. Format : AC-3

  68. Format/Info : Audio Coding 3

  69. Commercial name : Dolby Digital

  70. Codec ID : A_AC3

  71. Duration : 2 h 10 min

  72. Bit rate mode : Constant

  73. Bit rate : 640 kb/s

  74. Channel(s) : 6 channels

  75. Channel layout : L R C LFE Ls Rs

  76. Sampling rate : 48.0 kHz

  77. Frame rate : 31.250 FPS (1536 SPF)

  78. Compression mode : Lossy

  79. Stream size : 596 MiB (6%)

  80. Title : English Dolby 5.1-EX 5.1 @ 640 kbps

  81. Language : English

  82. Service kind : Complete Main

  83. Default : No

  84. Forced : No

  85. Audio #3

  86. ID : 4

  87. Format : AC-3

  88. Format/Info : Audio Coding 3

  89. Commercial name : Dolby Digital

  90. Codec ID : A_AC3

  91. Duration : 2 h 10 min

  92. Bit rate mode : Constant

  93. Bit rate : 192 kb/s

  94. Channel(s) : 2 channels

  95. Channel layout : L R

  96. Sampling rate : 48.0 kHz

  97. Frame rate : 31.250 FPS (1536 SPF)

  98. Compression mode : Lossy

  99. Stream size : 179 MiB (2%)

  100. Title : English Dolby Digital Audio 2.0 @ 192 kbps Commentary

  101. Language : English

  102. Service kind : Complete Main

  103. Default : No

  104. Forced : No

  105. Text #1

  106. ID : 5

  107. Format : PGS

  108. Codec ID : S_HDMV/PGS

  109. Codec ID/Info : Picture based subtitle format used on BDs/HD-DVDs

  110. Duration : 2 h 0 min

  111. Bit rate : 42.1 kb/s

  112. Count of elements : 4052

  113. Stream size : 36.4 MiB (0%)

  114. Title : Eng/SUP SDH

  115. Language : English

  116. Default : No

  117. Forced : No

  118. Text #2

  119. ID : 6

  120. Format : PGS

  121. Codec ID : S_HDMV/PGS

  122. Codec ID/Info : Picture based subtitle format used on BDs/HD-DVDs

  123. Duration : 2 h 0 min

  124. Bit rate : 34.7 kb/s

  125. Count of elements : 3354

  126. Stream size : 30.0 MiB (0%)

  127. Title : Eng/SUP

  128. Language : English

  129. Default : No

  130. Forced : No

  131. Text #3

  132. ID : 7

  133. Format : PGS

  134. Codec ID : S_HDMV/PGS

  135. Codec ID/Info : Picture based subtitle format used on BDs/HD-DVDs

  136. Duration : 2 h 0 min

  137. Bit rate : 27.3 kb/s

  138. Count of elements : 3864

  139. Stream size : 23.6 MiB (0%)

  140. Title : Chs/SUP 简体

  141. Language : Chinese

  142. Default : No

  143. Forced : No

  144. Text #4

  145. ID : 8

  146. Format : PGS

  147. Codec ID : S_HDMV/PGS

  148. Codec ID/Info : Picture based subtitle format used on BDs/HD-DVDs

  149. Duration : 2 h 0 min

  150. Bit rate : 28.2 kb/s

  151. Count of elements : 3864

  152. Stream size : 24.4 MiB (0%)

  153. Title : Cht/SUP 繁体

  154. Language : Chinese

  155. Default : No

  156. Forced : No

  157. Text #5

  158. ID : 9

  159. Format : PGS

  160. Codec ID : S_HDMV/PGS

  161. Codec ID/Info : Picture based subtitle format used on BDs/HD-DVDs

  162. Duration : 2 h 0 min

  163. Bit rate : 49.1 kb/s

  164. Count of elements : 3864

  165. Stream size : 42.5 MiB (0%)

  166. Title : Chs/SUP 简英双语

  167. Language : Chinese

  168. Default : Yes

  169. Forced : No

  170. Text #6

  171. ID : 10

  172. Format : PGS

  173. Codec ID : S_HDMV/PGS

  174. Codec ID/Info : Picture based subtitle format used on BDs/HD-DVDs

  175. Duration : 2 h 0 min

  176. Bit rate : 50.2 kb/s

  177. Count of elements : 3864

  178. Stream size : 43.4 MiB (0%)

  179. Title : Cht/SUP 繁英双语

  180. Language : Chinese

  181. Default : No

  182. Forced : No

  183. Menu

  184. 00:00:00.000 : en:第 01 章

  185. 00:05:58.275 : en:第 02 章

  186. 00:13:28.057 : en:第 03 章

  187. 00:21:14.565 : en:第 04 章

  188. 00:30:58.940 : en:第 05 章

  189. 00:38:36.856 : en:第 06 章

  190. 00:47:33.726 : en:第 07 章

  191. 00:55:51.848 : en:第 08 章

  192. 01:03:39.816 : en:第 09 章

  193. 01:10:14.710 : en:第 10 章

  194. 01:15:38.534 : en:第 11 章

  195. 01:22:37.369 : en:第 12 章

  196. 01:30:10.780 : en:第 13 章

  197. 01:35:47.784 : en:第 14 章

  198. 01:45:09.178 : en:第 15 章

  199. 01:56:22.976 : en:第 16 章


复制代码



文件下载


除非特别注明,本文『月球陨落[简繁英字幕].Moonfall.2022.BluRay.1080p.TrueHD.Atmos.7.1.x265.10bit-ALT 9.64GB』来源于互联网机器人自动抓取,非本站原创。 浮游电影网不对本文拥有版权,如有侵犯,请联系邮箱:fuyouu#yandex.com[#换成@]投诉。我们会在15个工作日内删除。 但烦请转载时请标明出处:“本文转载于『浮游电影网』,原文地址:https://www.fuyouu.com/21678.html

评论吧骚年!

发表你的见解   

昵称*

E-mail*(建议输入,以便收到博主回复的提示邮件)

验证码*

您可以使用eMule或eMule Mod(Windows)、aMule(Win、Linux、Mac)等软件下载eD2k链接。。
eMule收藏集(.emulecollection)文件是您选中的所有链接的列表文件。eMule可以直接下载它们。
按住SHIFT键选择可以选中多个选择框。
可用文件名和大小选择器来选择文件。
文件名选择器帮您根据文件名称或后缀来选择文件。不分大小写。
符号使用:
和:空格( )、+
不包含:-
或:|
转义:一对英文引号("");
匹配开头:^
匹配结尾:$
例如:
选中所有名称中包含有“eMule”或“0.49c”字眼,但不包含有“exe”字眼的:emule|0.49c -exe
选中所有名称的开头是“eMule”,结尾是“0.49c”的:^emule 0.49c$
选中所有名称中带有“eMule 0.49c”的(必须是“eMule 0.49c”,中间没有别的字符,不能是“eMule fake 0.49c”),需要转义:"emule 0.49c"
大小选择器帮您根据文件大小选择文件。