当前位置: 首页 >> 国产电影 >> 幸存者1937[杜比视界版本][国语配音/中文字幕].Survivor.1937.2021.2160p.WEB-DL.H265.DV.DDP5.1.Atmos-HDBWEB 8.64GB >> 正文

幸存者1937[杜比视界版本][国语配音/中文字幕].Survivor.1937.2021.2160p.WEB-DL.H265.DV.DDP5.1.Atmos-HDBWEB 8.64GB

2022年04月24日 22:33:12     电影发布:来源于网络     电影分类:国产电影     评论(0)    

微信截图_20220424223338.png

◎译 名 幸存者1937

◎年 代 2021

◎产 地 中国大陆

◎类 别 战争

◎语 言 汉语普通话

◎上映日期 2021-07-01(中国大陆)

◎IMDb链接 https://www.imdb.com/title//

◎豆瓣评分 5.7/10 (3204人评价)

◎豆瓣链接 https://movie.douban.com/subject/35231416/

◎片 长 120分钟

◎导 演 王岩川 Yan Chuan Wang (id:1395123)

◎演 员 苏鑫 Xin Su (id:1357128)

孙昊 Hao Sun (id:1385831)

马佳玮 Weijia Ma (id:1422695)

王智 Zhi Wang (id:1446669)

杨宇鑫 Yuxin Yang (id:1419731)

姚未平 Weiping Yao (id:1364573)

李凯 Kai Li (id:1437301)

王忠浩 Zhonghao Wang (id:1404469)

金靖承 Jingcheng Jin (id:1399720)

钱磊 Lei Qian (id:1394010)

◎简 介

电影以平型关大捷为背景,讲述了密码专家郑忠因对扭转战局起到关键作用被日军围剿追杀,为营救密码专家,八路军派出一支精锐小分队深入敌后,冲破日军的重重包围、经历九死一生,成功将郑忠护送至后方的故事。

  1. ##### MediaInfo ######

  2. General

  3. Complete name : 幸存者1937.Survivor.1937.2021.2160p.WEB-DL.H265.DV.DDP5.1.Atmos-HDBWEB.mp4

  4. Format : MPEG-4

  5. Format profile : Base Media / Version 2

  6. Codec ID : mp42 (mp42/iso6/isom/msdh/dby1)

  7. File size : 8.64 GiB

  8. Duration : 1 h 59 min

  9. Overall bit rate : 10.4 Mb/s

  10. Encoded date : UTC 2022-04-23 09:02:08

  11. Tagged date : UTC 2022-04-23 09:02:08

  12. Video

  13. ID : 1

  14. Format : HEVC

  15. Format/Info : High Efficiency Video Coding

  16. Format profile : Main [email protected]@Main

  17. HDR format : Dolby Vision, Version 1.0, dvhe.05.06, BL+RPU

  18. Codec ID : dvhe

  19. Codec ID/Info : High Efficiency Video Coding with Dolby Vision

  20. Duration : 1 h 59 min

  21. Bit rate : 9 675 kb/s

  22. Width : 3 840 pixels

  23. Height : 1 440 pixels

  24. Display aspect ratio : 2.667

  25. Frame rate mode : Constant

  26. Frame rate : 25.000 FPS

  27. Color space : YUV

  28. Chroma subsampling : 4:2:0

  29. Bit depth : 10 bits

  30. Bits/(Pixel*Frame) : 0.070

  31. Stream size : 8.05 GiB (93%)

  32. Default : Yes

  33. Alternate group : 1

  34. Encoded date : UTC 2022-04-23 09:02:08

  35. Tagged date : UTC 2022-04-23 09:02:08

  36. Color range : Full

  37. Codec configuration box : hvcC+dvcC

  38. Audio #1

  39. ID : 2

  40. Format : E-AC-3 JOC

  41. Format/Info : Enhanced AC-3 with Joint Object Coding

  42. Commercial name : Dolby Digital Plus with Dolby Atmos

  43. Codec ID : ac-3

  44. Duration : 1 h 59 min

  45. Bit rate mode : Constant

  46. Bit rate : 448 kb/s

  47. Channel(s) : 6 channels

  48. Channel layout : L R C LFE Ls Rs

  49. Sampling rate : 48.0 kHz

  50. Frame rate : 31.250 FPS (1536 SPF)

  51. Compression mode : Lossy

  52. Stream size : 382 MiB (4%)

  53. Language : Chinese

  54. Service kind : Complete Main

  55. Default : Yes

  56. Alternate group : 2

  57. Encoded date : UTC 2022-04-23 09:02:08

  58. Tagged date : UTC 2022-04-23 09:02:08

  59. Complexity index : Not present / 16

  60. Number of dynamic objects : 15

  61. Bed channel count : 1 channel

  62. Bed channel configuration : LFE

  63. Audio #2

  64. ID : 3

  65. Format : E-AC-3

  66. Format/Info : Enhanced AC-3

  67. Commercial name : Dolby Digital Plus

  68. Codec ID : ac-3

  69. Duration : 1 h 59 min

  70. Bit rate mode : Constant

  71. Bit rate : 256 kb/s

  72. Channel(s) : 2 channels

  73. Channel layout : L R

  74. Sampling rate : 48.0 kHz

  75. Frame rate : 31.250 FPS (1536 SPF)

  76. Compression mode : Lossy

  77. Stream size : 218 MiB (2%)

  78. Language : Chinese

  79. Service kind : Complete Main

  80. Default : No

  81. Alternate group : 2

  82. Encoded date : UTC 2022-04-23 09:02:08

  83. Tagged date : UTC 2022-04-23 09:02:08


复制代码



文件下载


除非特别注明,本文『幸存者1937[杜比视界版本][国语配音/中文字幕].Survivor.1937.2021.2160p.WEB-DL.H265.DV.DDP5.1.Atmos-HDBWEB 8.64GB』来源于互联网机器人自动抓取,非本站原创。 浮游电影网不对本文拥有版权,如有侵犯,请联系邮箱:fuyouu#yandex.com[#换成@]投诉。我们会在15个工作日内删除。 但烦请转载时请标明出处:“本文转载于『浮游电影网』,原文地址:https://www.fuyouu.com/21672.html

评论吧骚年!

发表你的见解   

昵称*

E-mail*(建议输入,以便收到博主回复的提示邮件)

验证码*

您可以使用eMule或eMule Mod(Windows)、aMule(Win、Linux、Mac)等软件下载eD2k链接。。
eMule收藏集(.emulecollection)文件是您选中的所有链接的列表文件。eMule可以直接下载它们。
按住SHIFT键选择可以选中多个选择框。
可用文件名和大小选择器来选择文件。
文件名选择器帮您根据文件名称或后缀来选择文件。不分大小写。
符号使用:
和:空格( )、+
不包含:-
或:|
转义:一对英文引号("");
匹配开头:^
匹配结尾:$
例如:
选中所有名称中包含有“eMule”或“0.49c”字眼,但不包含有“exe”字眼的:emule|0.49c -exe
选中所有名称的开头是“eMule”,结尾是“0.49c”的:^emule 0.49c$
选中所有名称中带有“eMule 0.49c”的(必须是“eMule 0.49c”,中间没有别的字符,不能是“eMule fake 0.49c”),需要转义:"emule 0.49c"
大小选择器帮您根据文件大小选择文件。