当前位置: 首页 >> 海外电影 >> 快乐影响[简体字幕].The.Happiness.Effect.2019.WEB-DL.AAC2.0.H.264-CTRLWEB 2.74GB >> 正文

快乐影响[简体字幕].The.Happiness.Effect.2019.WEB-DL.AAC2.0.H.264-CTRLWEB 2.74GB

2022年04月24日 22:30:52     电影发布:来源于网络     电影分类:海外电影     评论(0)    

快乐影响[简体字幕].The.Happiness.Effect.2019.WEB DL.AAC2.0.H.264 CTRLWEB 2.74GB  海外电影  第1张

◎译 名 快乐影响 / 最後的幸福時光

◎片 名 The Happiness Effect

◎年 代 2019

◎产 地 北马其顿 / 阿尔巴尼亚 / 科索沃 / 塞尔维亚 / 黑山

◎类 别 剧情

◎语 言 马其顿语

◎IMDb链接 https://www.imdb.com/title/tt5420898/

◎豆瓣链接 https://movie.douban.com/subject/35571140/

◎片 长 90分钟

◎演 员 萨斯科·科切夫 Sasko Kocev (id:1342649)

佩特·阿尔索夫斯基 Petre Arsovski (id:1058625)

Aleksandar Mikic Aleksandar Mikic (id:1395457)

◎简 介

Lea is a young girl on the brink of death. She begins her final challenge, a thesis that seeks proof in the belief that happiness can be multiplied, as can the feelings of sadness, loneliness, and misery. Unfolding the research, she discovers the "Werther Effect", a phenomenon that creates a negative domino effect. She turns to her work on a project which will achieve the oppos...

  1. ##### MediaInfo ######

  2. General

  3. Unique ID : 331225374607333482911553778884878298600 (0xF92FAFCD84C02B3A6EFEA60C10646DE8)

  4. Complete name : The.Happiness.Effect.2019.WEB-DL.AAC2.0.H.264-CTRLWEB.mkv

  5. Format : Matroska

  6. Format version : Version 4

  7. File size : 2.74 GiB

  8. Duration : 1 h 29 min

  9. Overall bit rate : 4 390 kb/s

  10. Encoded date : UTC 2022-04-23 15:00:18

  11. Writing application : mkvmerge v63.0.0 ('Everything') 64-bit

  12. Writing library : libebml v1.4.2 + libmatroska v1.6.4

  13. Video

  14. ID : 1

  15. Format : AVC

  16. Format/Info : Advanced Video Codec

  17. Format profile : [email protected]

  18. Format settings : CABAC / 5 Ref Frames

  19. Format settings, CABAC : Yes

  20. Format settings, Reference frames : 5 frames

  21. Codec ID : V_MPEG4/ISO/AVC

  22. Duration : 1 h 29 min

  23. Bit rate : 4 263 kb/s

  24. Width : 1 920 pixels

  25. Height : 1 080 pixels

  26. Display aspect ratio : 16:9

  27. Frame rate mode : Constant

  28. Frame rate : 24.000 FPS

  29. Color space : YUV

  30. Chroma subsampling : 4:2:0

  31. Bit depth : 8 bits

  32. Scan type : Progressive

  33. Bits/(Pixel*Frame) : 0.086

  34. Stream size : 2.66 GiB (97%)

  35. Language : Macedonian

  36. Default : Yes

  37. Forced : No

  38. Audio

  39. ID : 2

  40. Format : AAC LC

  41. Format/Info : Advanced Audio Codec Low Complexity

  42. Codec ID : A_AAC-2

  43. Duration : 1 h 29 min

  44. Bit rate : 125 kb/s

  45. Channel(s) : 2 channels

  46. Channel layout : L R

  47. Sampling rate : 48.0 kHz

  48. Frame rate : 46.875 FPS (1024 SPF)

  49. Compression mode : Lossy

  50. Stream size : 80.2 MiB (3%)

  51. Language : Macedonian

  52. Default : Yes

  53. Forced : No

  54. Text #1

  55. ID : 3

  56. Format : UTF-8

  57. Codec ID : S_TEXT/UTF8

  58. Codec ID/Info : UTF-8 Plain Text

  59. Duration : 1 h 24 min

  60. Bit rate : 32 b/s

  61. Count of elements : 685

  62. Stream size : 20.3 KiB (0%)

  63. Title : Simplified

  64. Language : Chinese

  65. Default : Yes

  66. Forced : No

  67. Text #2

  68. ID : 4

  69. Format : UTF-8

  70. Codec ID : S_TEXT/UTF8

  71. Codec ID/Info : UTF-8 Plain Text

  72. Duration : 1 h 24 min

  73. Bit rate : 32 b/s

  74. Count of elements : 685

  75. Stream size : 20.4 KiB (0%)

  76. Title : Traditional

  77. Language : Chinese

  78. Default : No

  79. Forced : No


复制代码



文件下载


除非特别注明,本文『快乐影响[简体字幕].The.Happiness.Effect.2019.WEB-DL.AAC2.0.H.264-CTRLWEB 2.74GB』来源于互联网机器人自动抓取,非本站原创。 浮游电影网不对本文拥有版权,如有侵犯,请联系邮箱:fuyouu#yandex.com[#换成@]投诉。我们会在15个工作日内删除。 但烦请转载时请标明出处:“本文转载于『浮游电影网』,原文地址:https://www.fuyouu.com/21671.html

评论吧骚年!

发表你的见解   

昵称*

E-mail*(建议输入,以便收到博主回复的提示邮件)

验证码*

您可以使用eMule或eMule Mod(Windows)、aMule(Win、Linux、Mac)等软件下载eD2k链接。。
eMule收藏集(.emulecollection)文件是您选中的所有链接的列表文件。eMule可以直接下载它们。
按住SHIFT键选择可以选中多个选择框。
可用文件名和大小选择器来选择文件。
文件名选择器帮您根据文件名称或后缀来选择文件。不分大小写。
符号使用:
和:空格( )、+
不包含:-
或:|
转义:一对英文引号("");
匹配开头:^
匹配结尾:$
例如:
选中所有名称中包含有“eMule”或“0.49c”字眼,但不包含有“exe”字眼的:emule|0.49c -exe
选中所有名称的开头是“eMule”,结尾是“0.49c”的:^emule 0.49c$
选中所有名称中带有“eMule 0.49c”的(必须是“eMule 0.49c”,中间没有别的字符,不能是“eMule fake 0.49c”),需要转义:"emule 0.49c"
大小选择器帮您根据文件大小选择文件。