当前位置: 首页 >> 国产电影 >> 环线[粤语音轨/中英字幕].The.Labyrint.2022.WEB-DL.1080p.H265.AAC.2Audios-HOMEWEB 4.12GB >> 正文

环线[粤语音轨/中英字幕].The.Labyrint.2022.WEB-DL.1080p.H265.AAC.2Audios-HOMEWEB 4.12GB

2022年04月24日 22:29:55     电影发布:来源于网络     电影分类:国产电影     评论(0)    

环线[粤语音轨/中英字幕].The.Labyrint.2022.WEB DL.1080p.H265.AAC.2Audios HOMEWEB 4.12GB  国产电影  第1张

◎译 名 环线

◎年 代 2022

◎产 地 中国大陆

◎类 别 动作 / 科幻 / 冒险 / 灾难

◎语 言 汉语普通话

◎上映日期 2022-04-20(中国大陆网络)

◎IMDb链接 https://www.imdb.com/title//

◎豆瓣链接 https://movie.douban.com/subject/35860951/

◎编 剧 金晓 Xiao Jin (id:1334557)

王匡敏 Kuangmin Wang (id:1334554)

◎演 员 陈小春 Jordan Chan (id:1075760)

彭敬慈 Samuel Pang (id:1132694)

郭珺 Jun Guo (id:1457944)

纪海星 Haixing Ji (id:1414489)

◎简 介

故事讲述了以刀哥(陈小春 饰)和高飞(彭敬慈 饰)为首的一群普通人,在一场离奇的地铁事故中,遭遇到变异嗜血的生化蜈蚣,众人从一开始的猜忌自保,到最后齐心协力共同对战地底巨兽的故事。影片中凶残无比的怪异巨型蜈蚣、诡谲莫测的地下洞窟、坠落深渊的环线地铁,所有的一切都让逃生之路变的危机重重。

  1. ##### MediaInfo ######

  2. General

  3. Unique ID : 57512797050199616126004580392348242411 (0x2B448FD248F614E4DF03DFDA7E1151EB)

  4. Complete name : The.Labyrint.2022.WEB-DL.1080p.H265.AAC.2Audios-HOMEWEB.mkv

  5. Format : Matroska

  6. Format version : Version 4

  7. File size : 4.12 GiB

  8. Duration : 1 h 9 min

  9. Overall bit rate : 8 534 kb/s

  10. Encoded date : UTC 2022-04-23 17:15:12

  11. Writing application : mkvmerge v63.0.0 ('Everything') 64-bit

  12. Writing library : libebml v1.4.2 + libmatroska v1.6.4

  13. Video

  14. ID : 1

  15. Format : HEVC

  16. Format/Info : High Efficiency Video Coding

  17. Format profile : [email protected]@Main

  18. Codec ID : V_MPEGH/ISO/HEVC

  19. Duration : 1 h 9 min

  20. Bit rate : 8 033 kb/s

  21. Width : 1 920 pixels

  22. Height : 800 pixels

  23. Display aspect ratio : 2.40:1

  24. Frame rate mode : Constant

  25. Frame rate : 24.000 FPS

  26. Color space : YUV

  27. Chroma subsampling : 4:2:0

  28. Bit depth : 8 bits

  29. Bits/(Pixel*Frame) : 0.218

  30. Stream size : 3.88 GiB (94%)

  31. Default : Yes

  32. Forced : No

  33. Audio #1

  34. ID : 2

  35. Format : AAC LC

  36. Format/Info : Advanced Audio Codec Low Complexity

  37. Codec ID : A_AAC-2

  38. Duration : 1 h 9 min

  39. Bit rate : 253 kb/s

  40. Channel(s) : 2 channels

  41. Channel layout : L R

  42. Sampling rate : 48.0 kHz

  43. Frame rate : 46.875 FPS (1024 SPF)

  44. Compression mode : Lossy

  45. Stream size : 125 MiB (3%)

  46. Title : 普通话

  47. Language : Chinese

  48. Default : Yes

  49. Forced : No

  50. Audio #2

  51. ID : 3

  52. Format : AAC LC

  53. Format/Info : Advanced Audio Codec Low Complexity

  54. Codec ID : A_AAC-2

  55. Duration : 1 h 9 min

  56. Bit rate : 253 kb/s

  57. Channel(s) : 2 channels

  58. Channel layout : L R

  59. Sampling rate : 48.0 kHz

  60. Frame rate : 46.875 FPS (1024 SPF)

  61. Compression mode : Lossy

  62. Stream size : 125 MiB (3%)

  63. Title : 粤语

  64. Language : Chinese

  65. Default : No

  66. Forced : No

  67. Text #1

  68. ID : 4

  69. Format : UTF-8

  70. Codec ID : S_TEXT/UTF8

  71. Codec ID/Info : UTF-8 Plain Text

  72. Duration : 1 h 8 min

  73. Bit rate : 20 b/s

  74. Count of elements : 698

  75. Stream size : 10.5 KiB (0%)

  76. Title : 简体中文

  77. Language : Chinese

  78. Default : Yes

  79. Forced : No

  80. Text #2

  81. ID : 5

  82. Format : UTF-8

  83. Codec ID : S_TEXT/UTF8

  84. Codec ID/Info : UTF-8 Plain Text

  85. Duration : 1 h 8 min

  86. Bit rate : 20 b/s

  87. Count of elements : 698

  88. Stream size : 10.5 KiB (0%)

  89. Title : 繁体中文

  90. Language : Chinese

  91. Default : No

  92. Forced : No

  93. Text #3

  94. ID : 6

  95. Format : UTF-8

  96. Codec ID : S_TEXT/UTF8

  97. Codec ID/Info : UTF-8 Plain Text

  98. Duration : 1 h 8 min

  99. Bit rate : 35 b/s

  100. Count of elements : 698

  101. Stream size : 17.6 KiB (0%)

  102. Title : 阿拉伯语

  103. Language : Arabic

  104. Default : No

  105. Forced : No

  106. Text #4

  107. ID : 7

  108. Format : UTF-8

  109. Codec ID : S_TEXT/UTF8

  110. Codec ID/Info : UTF-8 Plain Text

  111. Duration : 1 h 9 min

  112. Bit rate : 26 b/s

  113. Count of elements : 701

  114. Stream size : 13.5 KiB (0%)

  115. Title : 英语

  116. Language : English

  117. Default : No

  118. Forced : No

  119. Text #5

  120. ID : 8

  121. Format : UTF-8

  122. Codec ID : S_TEXT/UTF8

  123. Codec ID/Info : UTF-8 Plain Text

  124. Duration : 1 h 8 min

  125. Bit rate : 27 b/s

  126. Count of elements : 695

  127. Stream size : 14.0 KiB (0%)

  128. Title : 韩语

  129. Language : Korean

  130. Default : No

  131. Forced : No

  132. Text #6

  133. ID : 9

  134. Format : UTF-8

  135. Codec ID : S_TEXT/UTF8

  136. Codec ID/Info : UTF-8 Plain Text

  137. Duration : 1 h 9 min

  138. Bit rate : 29 b/s

  139. Count of elements : 701

  140. Stream size : 14.9 KiB (0%)

  141. Title : 马来语

  142. Language : Malay

  143. Default : No

  144. Forced : No

  145. Text #7

  146. ID : 10

  147. Format : UTF-8

  148. Codec ID : S_TEXT/UTF8

  149. Codec ID/Info : UTF-8 Plain Text

  150. Duration : 1 h 9 min

  151. Bit rate : 66 b/s

  152. Count of elements : 701

  153. Stream size : 33.9 KiB (0%)

  154. Title : 泰语

  155. Language : Thai

  156. Default : No

  157. Forced : No

  158. Text #8

  159. ID : 11

  160. Format : UTF-8

  161. Codec ID : S_TEXT/UTF8

  162. Codec ID/Info : UTF-8 Plain Text

  163. Duration : 1 h 9 min

  164. Bit rate : 38 b/s

  165. Count of elements : 701

  166. Stream size : 19.3 KiB (0%)

  167. Title : 越语

  168. Language : Vietnamese

  169. Default : No

  170. Forced : No

  171. Text #9

  172. ID : 12

  173. Format : UTF-8

  174. Codec ID : S_TEXT/UTF8

  175. Codec ID/Info : UTF-8 Plain Text

  176. Duration : 1 h 8 min

  177. Bit rate : 26 b/s

  178. Count of elements : 694

  179. Stream size : 13.3 KiB (0%)

  180. Title : 西班牙语

  181. Language : Spanish

  182. Default : No

  183. Forced : No

  184. Text #10

  185. ID : 13

  186. Format : UTF-8

  187. Codec ID : S_TEXT/UTF8

  188. Codec ID/Info : UTF-8 Plain Text

  189. Duration : 1 h 8 min

  190. Bit rate : 28 b/s

  191. Count of elements : 698

  192. Stream size : 14.1 KiB (0%)

  193. Title : 印尼语

  194. Language : Indonesian

  195. Default : No

  196. Forced : No


复制代码



文件下载


除非特别注明,本文『环线[粤语音轨/中英字幕].The.Labyrint.2022.WEB-DL.1080p.H265.AAC.2Audios-HOMEWEB 4.12GB』来源于互联网机器人自动抓取,非本站原创。 浮游电影网不对本文拥有版权,如有侵犯,请联系邮箱:fuyouu#yandex.com[#换成@]投诉。我们会在15个工作日内删除。 但烦请转载时请标明出处:“本文转载于『浮游电影网』,原文地址:https://www.fuyouu.com/21670.html

评论吧骚年!

发表你的见解   

昵称*

E-mail*(建议输入,以便收到博主回复的提示邮件)

验证码*

您可以使用eMule或eMule Mod(Windows)、aMule(Win、Linux、Mac)等软件下载eD2k链接。。
eMule收藏集(.emulecollection)文件是您选中的所有链接的列表文件。eMule可以直接下载它们。
按住SHIFT键选择可以选中多个选择框。
可用文件名和大小选择器来选择文件。
文件名选择器帮您根据文件名称或后缀来选择文件。不分大小写。
符号使用:
和:空格( )、+
不包含:-
或:|
转义:一对英文引号("");
匹配开头:^
匹配结尾:$
例如:
选中所有名称中包含有“eMule”或“0.49c”字眼,但不包含有“exe”字眼的:emule|0.49c -exe
选中所有名称的开头是“eMule”,结尾是“0.49c”的:^emule 0.49c$
选中所有名称中带有“eMule 0.49c”的(必须是“eMule 0.49c”,中间没有别的字符,不能是“eMule fake 0.49c”),需要转义:"emule 0.49c"
大小选择器帮您根据文件大小选择文件。